<?xml version="1.0" standalone="no"?>
<!DOCTYPE svg PUBLIC "-//W3C//DTD SVG 1.1//EN" "http://www.w3.org/Graphics/SVG/1.1/DTD/svg11.dtd" >
<svg xmlns="http://www.w3.org/2000/svg">
<metadata>Generated by IcoMoon</metadata>
<defs>
<font id="icomoon" horiz-adv-x="1024">
<font-face units-per-em="1024" ascent="960" descent="-64" />
<missing-glyph horiz-adv-x="1024" />
<glyph unicode="&#x20;" horiz-adv-x="512" d="" />
<glyph unicode="&#xe900;" glyph-name="icon-file-device" d="M906.573 222.464c14.126-0.016 25.572-11.471 25.572-25.6 0-13.073-9.799-23.857-22.453-25.408l-0.124-0.012-2.995-0.179h-204.877c-14.115 0.031-25.546 11.48-25.546 25.6 0 13.073 9.799 23.857 22.453 25.408l0.124 0.012 2.97 0.179h204.902zM308.531 222.464c14.126-0.016 25.572-11.471 25.572-25.6 0-13.073-9.799-23.857-22.453-25.408l-0.124-0.012-2.995-0.179h-206.131c-14.126 0.016-25.572 11.471-25.572 25.6 0 13.073 9.799 23.857 22.453 25.408l0.124 0.012 2.995 0.179h206.131zM816.051 780.8c33.333-0.131 60.552-26.128 62.634-58.953l0.009-0.183 0.128-4.173v-384.512c0-0.070 0-0.153 0-0.236 0-33.275-25.755-60.535-58.418-62.933l-0.207-0.012-4.147-0.128h-114.355c-14.115 0.031-25.546 11.48-25.546 25.6 0 13.073 9.799 23.857 22.453 25.408l0.124 0.012 2.97 0.179h114.381c5.75 0.108 10.483 4.329 11.383 9.839l0.009 0.068 0.179 2.202v384.512c0.001 0.054 0.001 0.119 0.001 0.183 0 5.738-4.034 10.534-9.42 11.706l-0.079 0.014-2.074 0.205h-623.386c-5.739-0.12-10.459-4.338-11.357-9.839l-0.009-0.068-0.205-2.202v-384.512c0-6.016 4.173-10.906 9.523-11.904l2.048-0.205h115.789c14.126-0.016 25.572-11.471 25.572-25.6 0-13.073-9.799-23.857-22.453-25.408l-0.124-0.012-2.995-0.179h-115.763c-33.333 0.131-60.552 26.128-62.634 58.953l-0.009 0.183-0.128 4.173v384.512c0 0.070 0 0.153 0 0.236 0 33.275 25.755 60.535 58.418 62.933l0.207 0.012 4.173 0.128h623.36zM504.499 691.789c14.14-0.007 25.6-11.472 25.6-25.613 0-14.146-11.467-25.613-25.613-25.613-0.004 0-0.009 0-0.013 0h0.001c-14.138 0-25.6 11.462-25.6 25.6s11.462 25.6 25.6 25.6v0zM503.066 471.091h0.512c6.282-0.143 11.931-2.738 16.051-6.861v0l-1.664 1.536c0.532-0.439 1.007-0.866 1.464-1.311l-0.005 0.005 0.205-0.23 121.037-121.037c1.302-1.293 2.453-2.737 3.424-4.303l0.058-0.1 0.41-0.742c0.284-0.476 0.592-1.064 0.87-1.668l0.051-0.124 0.358-0.845c1.069-2.53 1.691-5.471 1.691-8.558 0-0.079 0-0.157-0.001-0.235v0.012-191.846c0-12.954-10.496-23.45-23.424-23.45h-229.453c-0.008 0-0.017 0-0.026 0-12.937 0-23.424 10.487-23.424 23.424 0 0.009 0 0.018 0 0.027v-0.001 312.883c0 12.954 10.496 23.424 23.45 23.424h108.416zM479.616 424.269h-61.568v-266.061h182.63v144.998h-97.638c-0.002 0-0.005 0-0.007 0-11.971 0-21.845 8.981-23.252 20.572l-0.011 0.112-0.154 2.739v97.638zM526.464 391.142l0.026-41.062h41.037l-41.062 41.062z" />
<glyph unicode="&#xe901;" glyph-name="icon-abnormal-admin-activity" d="M730.368 313.139l2.406-2.125 47.027-47.027 47.053 47.002c9.984 9.984 26.214 9.984 36.198 0 9.216-9.216 9.933-23.731 2.125-33.792l-2.125-2.406-47.027-47.027 47.027-47.027c9.984-10.010 9.984-26.214 0-36.224-9.216-9.216-23.757-9.933-33.792-2.125l-2.406 2.125-47.053 47.053-47.027-47.053c-9.984-9.984-26.189-9.984-36.198 0-9.216 9.216-9.933 23.757-2.125 33.792l2.125 2.406 47.027 47.053-47.027 47.027c-9.984 9.984-9.984 26.214 0 36.224 9.216 9.216 23.757 9.933 33.792 2.125zM400.973 721.306c79.693 0 140.339-84.582 140.339-185.6 0-40.96-9.984-79.872-27.955-111.565l-2.765-4.582 1.92-1.101c39.424-23.859 73.83-60.083 100.326-105.318l4.864-8.576c6.81-12.39 2.304-27.955-10.086-34.765-12.39-6.835-27.955-2.304-34.765 10.086-28.16 51.174-67.046 88.653-110.566 106.854-16.282 6.81-20.941 27.699-9.114 40.781 22.886 25.344 36.941 64.87 36.941 108.186 0 75.699-42.086 134.4-89.139 134.4s-89.139-58.701-89.139-134.4c0-43.315 14.054-82.842 36.941-108.186 11.827-13.082 7.168-33.971-9.114-40.781-48.819-20.403-91.341-64.896-119.629-124.595l-4.019-8.781h411.034c13.133 0 23.962-9.882 25.421-22.63l0.179-2.97c0-13.133-9.882-23.962-22.605-25.421l-2.995-0.179h-447.846c-13.133 0-23.962 9.882-25.421 22.605l-0.179 2.995v0.922c0 2.714 0.435 5.402 1.28 7.987 25.651 78.080 71.526 141.466 129.126 178.432l7.296 4.48-2.714 4.557c-16.666 29.44-26.496 65.101-27.802 102.81l-0.154 8.755c0 101.018 60.672 185.6 140.339 185.6zM730.368 531.456l2.406-2.125 47.027-47.027 47.053 47.027c9.984 9.984 26.214 9.984 36.198 0 9.216-9.216 9.933-23.757 2.125-33.792l-2.125-2.432-47.027-47.027 47.027-47.027c9.984-9.984 9.984-26.214 0-36.198-9.216-9.216-23.757-9.958-33.792-2.15l-2.406 2.15-47.053 47.027-47.027-47.053c-9.984-9.984-26.189-9.984-36.198 0-9.216 9.216-9.933 23.757-2.125 33.792l2.125 2.432 47.027 47.027-47.027 47.053c-9.984 9.984-9.984 26.189 0 36.198 9.216 9.216 23.757 9.933 33.792 2.125zM730.368 749.824l2.406-2.15 47.053-47.027 47.027 47.053c9.984 9.984 26.214 9.984 36.198 0 9.216-9.216 9.933-23.757 2.125-33.792l-2.125-2.406-47.027-47.027 47.027-47.053c9.984-9.984 9.984-26.214 0-36.198-9.216-9.216-23.757-9.933-33.792-2.125l-2.406 2.125-47.053 47.027-47.027-47.027c-9.984-9.984-26.189-9.984-36.198 0-9.216 9.216-9.933 23.731-2.125 33.792l2.125 2.406 47.027 47.027-47.027 47.053c-9.984 9.984-9.984 26.214 0 36.198 9.216 9.216 23.757 9.933 33.792 2.125z" />
<glyph unicode="&#xe902;" glyph-name="icon-abnormal-data-manipulation" d="M282.010 208.775h96.666c14.131-0.026 25.6-11.494 25.6-25.626 0-13.133-9.907-23.962-22.63-25.421l-2.995-0.179-62.515 0.051 16.896-57.856c3.686-12.595-2.765-25.754-14.566-30.72l-2.816-1.024c-12.595-3.686-25.754 2.765-30.746 14.592l-1.024 2.816-26.445 90.598c-4.506 15.411 6.118 30.848 21.606 32.614l2.97 0.154zM652.851 291.719c13.619-3.763 21.606-17.869 17.843-31.488-35.738-129.024-169.267-204.672-298.291-168.96-13.619 3.763-21.606 17.869-17.843 31.488 3.789 13.645 17.894 21.632 31.488 17.843 101.786-28.16 207.104 31.488 235.29 133.299 3.789 13.619 17.894 21.606 31.488 17.818zM759.91 231.379l-1.434 0.205c-0.666 0.128-1.331 0.256-1.971 0.435l-0.768 0.205-2.304 0.768-0.845 0.384c-0.589 0.256-1.178 0.538-1.741 0.845l-1.28 0.717c-0.512 0.307-1.024 0.666-1.536 1.024-1.126 0.819-2.227 1.741-3.226 2.739l2.33-2.074c-0.819 0.64-1.613 1.331-2.355 2.074l-132.224 132.25-1.894 2.099c-0.768 0.947-1.459 1.971-2.074 3.021l-0.256 0.486c-0.435 0.717-0.819 1.51-1.178 2.304l-0.333 0.794c-0.256 0.666-0.512 1.357-0.717 2.048l-0.256 1.024c-0.23 0.768-0.384 1.587-0.512 2.406-0.179 1.28-0.282 2.611-0.282 3.917l0.179-3.226-0.026 0.256-0.179 2.97v209.664c0 14.131 11.469 25.6 25.6 25.6h250.752c14.131 0 25.6-11.469 25.6-25.6v-341.939c0-14.131-11.469-25.6-25.6-25.6h-118.502l-2.995 0.179zM246.477 642.157c1.101 0 2.202-0.051 3.251-0.205l0.512-0.051c0.896-0.128 1.792-0.307 2.662-0.538l0.742-0.205 2.304-0.768 0.845-0.384c0.589-0.256 1.178-0.538 1.741-0.845l1.254-0.717 1.382-0.896c1.203-0.845 2.355-1.792 3.405-2.867l-2.227 1.971 0.154-0.102 2.074-1.869 132.275-132.25c0.742-0.768 1.434-1.536 2.099-2.406l0.435-0.589c0.461-0.614 0.896-1.254 1.28-1.92l0.563-0.973c0.384-0.691 0.717-1.382 1.024-2.125l0.205-0.512c0.333-0.768 0.64-1.613 0.87-2.483l0.205-0.742c0.205-0.717 0.358-1.485 0.486-2.253 0.205-1.357 0.307-2.714 0.307-4.096l-0.179 3.2v-0.23l0.179-2.97v-209.664c0-14.131-11.469-25.6-25.6-25.6h-250.726c-14.131 0-25.6 11.469-25.6 25.6v341.939c0 14.131 11.469 25.6 25.6 25.6h118.477zM855.757 573.114h-199.526v-158.438h106.65c13.133 0 23.962-9.907 25.446-22.63l0.154-2.995v-106.624h67.277v290.688zM220.877 590.983h-67.277v-290.688h199.526v158.438h-106.65c-13.107 0-23.936 9.856-25.421 22.605l-0.179 2.97v106.675zM737.254 318.65l0.026 44.8-44.851 0.026 44.826-44.826zM272.077 554.759v-44.826h44.826l-44.826 44.826zM636.954 782.112c13.645-3.763 21.632-17.869 17.843-31.488-3.763-13.645-17.869-21.632-31.488-17.869-101.786 28.186-207.104-31.488-235.264-133.274-3.789-13.619-17.894-21.606-31.514-17.843-13.645 3.789-21.632 17.894-17.843 31.514 35.712 129.024 169.242 204.672 298.266 168.96zM724.48 790.816l0.998-2.816 26.47-90.624c4.506-15.411-6.118-30.848-21.632-32.614l-2.944-0.154h-96.666c-14.131 0-25.6 11.494-25.6 25.626 0 13.133 9.882 23.936 22.63 25.421l2.97 0.179 62.515-0.026-16.896 57.805c-3.686 12.621 2.765 25.779 14.592 30.746l2.816 1.024c12.595 3.661 25.754-2.79 30.72-14.592z" />
<glyph unicode="&#xe903;" glyph-name="icon-access-restirctions" d="M549.908 859.796l3.22-1.762 285.44-163.279c27.016-15.57 45.228-43.769 46.566-76.322l0.006-0.183 0.069-3.545v-326.538c-0.045-32.876-17.28-61.717-43.196-78.023l-0.383-0.225-3.052-1.822-56.084-32.089c-1.899-1.908-4.292-3.322-6.972-4.032l-0.108-0.024-222.287-127.134c-1.605-0.916-3.22-1.772-4.864-2.59l-0.64-0.325c-11.979-5.949-26.088-9.431-41.010-9.431-15.824 0-30.734 3.915-43.813 10.829l0.511-0.246-3.22 1.762-8.694 4.953c-11.351 5.82-20.531 11.154-29.43 16.884l1.369-0.825-248.753 142.277c-26.984 15.601-45.167 43.798-46.507 76.341l-0.006 0.184-0.069 3.535v312.35c0 0.007 0 0.014 0 0.022 0 8.483 6.877 15.36 15.36 15.36 7.936 0 14.466-6.018 15.276-13.74l0.006-0.066 0.079-1.575v-312.35c0.045-21.703 11.314-40.765 28.31-51.693l0.244-0.147 2.59-1.566 138.683-79.321c-40.285 55.507-64.443 124.995-64.443 200.125 0 0.096 0 0.192 0 0.289v-0.015c0 189.745 153.807 343.562 343.552 343.572h0.020c94.622 0 182.912-38.518 246.823-104.566v19.86c-0.041 21.705-11.325 40.766-28.338 51.673l-0.245 0.147-2.59 1.566-285.47 163.279c-8.979 5.23-19.764 8.317-31.269 8.317-10.382 0-20.177-2.514-28.81-6.966l0.352 0.165-2.796-1.506-274.708-157.125c-2.193-1.278-4.827-2.033-7.637-2.033-8.483 0-15.36 6.877-15.36 15.36 0 5.092 2.478 9.606 6.294 12.401l0.043 0.030 1.408 0.906 274.708 157.115c13.361 7.782 29.409 12.376 46.53 12.376 15.821 0 30.726-3.923 43.795-10.849l-0.508 0.246zM454.932 173.794l-0.817-0.197c-31.911-7.889-58.717-16.632-84.677-27.037l4.283 1.516c18.965-21.304 40.439-39.761 64.118-55.106l1.221-0.741 27.047-15.468c2.786-1.418 5.593-2.796 8.428-4.135 1.605-0.748 3.023-1.753 4.224-2.924 8.118-4.107 17.696-6.513 27.837-6.513 2.010 0 3.998 0.095 5.959 0.279l-0.251-0.019c-23.562 27.963-43.087 65.9-57.374 110.346zM485.75 180.529l-0.67-0.138c14.612-44.505 34.668-81.201 58.427-105.689l48.798 27.924v89.305c-36.066-0.857-71.68-4.687-106.545-11.402zM623.035 191.921l-0.010-71.719 105.748 60.485c-31.324 6.287-67.76 10.335-104.98 11.22l-0.768 0.014zM428.377 340.48h-133.189c3.136-63.163 24.586-120.763 59.099-168.255l-0.623 0.899c25.445 10.853 56.366 21.209 88.206 29.258l4.574 0.98c-10.673 41.945-16.975 88.478-18.078 137.118zM854.489 340.49h-67.525c-1.083-48.167-7.266-94.582-17.989-136.812l54.351 31.094c17.852 10.287 29.948 28.819 31.088 50.259l0.007 0.154 0.069 2.993v52.303zM592.305 340.49h-133.199c1.103-46.572 7.227-90.9 17.359-130.481 34.371 7.154 74.274 11.716 115.074 12.639l0.766 0.014v117.819zM756.244 340.49h-133.218v-117.829c39.207-0.886 77.922-5.12 115.86-12.642 10.289 40.044 16.266 84.352 17.349 130.462zM353.684 538.516l-1.329-1.822c-33.164-46.183-54.13-103.13-57.148-164.792l-0.028-0.722 133.189 0.010c0.394 17.319 1.428 34.314 3.082 50.885l1.152 10.673 0.64 5.287 1.408 10.486c0.985 6.951 2.097 13.804 3.298 20.578l1.89 10.073 1.004 4.982 2.127 9.846 2.284 9.708 1.172 4.618c-36.425 9.037-67.334 19.376-97.146 31.818l4.405-1.63zM476.485 501.652l-1.467-5.76-2.206-9.433c-0.709-3.17-1.388-6.38-2.048-9.61l-1.91-9.777c-0.916-4.923-1.772-9.915-2.56-14.966l-1.516-10.171c-3.041-20.721-5.087-45.183-5.668-70.007l-0.013-0.728 133.199-0.010v117.839c-41.563 0.946-81.456 5.501-120.144 13.369l4.333-0.736zM771.81 509.036l-2.895-0.699c0.798-3.131 1.575-6.282 2.314-9.452l2.206-9.777 2.048-9.935 1.89-10.073c0.906-5.071 1.753-10.201 2.53-15.38l1.497-10.417c1.172-8.743 2.166-17.615 2.983-26.604l0.906-10.831c0.847-11.402 1.408-22.961 1.674-34.678h67.515v164.46c-22.225-9.191-49.775-18.294-78.052-25.585l-4.616-1.010zM623.025 489.019v-117.819h133.218c-0.225 8.985-0.579 17.087-1.078 25.149l0.093-1.883-0.738 10.782-0.916 10.654c-0.326 3.692-0.515 5.507-0.714 7.319l0.182-2.041-1.182 10.457c-0.197 1.733-0.423 3.456-0.65 5.179l-1.428 10.24c-1.943 13.307-3.775 23.426-5.875 33.447l0.637-3.632-2.068 9.61c-0.345 1.575-0.709 3.161-1.083 4.726l-2.265 9.354-0.295 1.103c-34.361-7.132-74.26-11.686-115.054-12.619l-0.776-0.014zM511.764 593.231l-3.712-6.853c-8.527-16.295-16.197-34.619-22.794-54.617l-0.167-0.492c31.765-6.452 68.701-10.603 106.441-11.505l0.773-0.015v147.2c-30.031-6.843-58.033-33.408-80.542-73.718zM623.025 666.939v-147.2c38.519 0.929 75.451 5.079 111.313 12.2l-4.108-0.68c-5.808 17.782-11.766 32.464-18.581 46.655l0.986-2.279-3.545 7.227c-23.375 46.1-53.524 76.682-86.065 84.086zM519.217 656.010l-1.044-0.315c-57.65-17.586-106.533-49.56-144.15-91.788l-0.273-0.313c21.935-9.006 48.994-17.818 76.781-24.791l4.361-0.927 2.432 7.365 3.072 8.734c15.232 41.856 35.279 76.859 58.821 102.036zM696.123 655.99l1.27-1.369c25.925-28.258 47.537-68.529 63.045-116.736 32.147 7.892 59.206 16.698 85.398 27.206l-4.256-1.508c-38.098 42.839-87.366 74.956-143.246 91.832l-2.211 0.574zM154.033 672c10.341-0.342 18.595-8.807 18.595-19.2s-8.253-18.858-18.564-19.199l-0.031-0.001c-10.341 0.342-18.595 8.807-18.595 19.2s8.253 18.858 18.564 19.199l0.031 0.001z" />
<glyph unicode="&#xe904;" glyph-name="icon-access-violation" d="M339.43 437.581l2.406-2.125 111.718-111.744 111.744 111.744c9.984 9.984 26.189 9.984 36.198 0 9.216-9.242 9.933-23.757 2.125-33.792l-2.125-2.432-111.744-111.718 111.744-111.718c9.984-9.984 9.984-26.214 0-36.198-9.216-9.216-23.757-9.958-33.792-2.15l-2.406 2.15-111.744 111.718-111.718-111.744c-9.984-9.984-26.214-9.984-36.198 0-9.216 9.216-9.958 23.757-2.125 33.792l2.125 2.432 111.718 111.718-111.718 111.744c-9.984 9.984-9.984 26.189 0 36.198 9.216 9.216 23.731 9.933 33.792 2.125zM576.256 780.8c21.709 0 43.085-3.277 63.539-9.6 19.789-6.195 40.986-16.026 63.283-32.512 9.421-6.989 17.562-14.131 24.678-21.248 9.984-10.010 9.984-26.24 0-36.224s-26.214-9.984-36.198 0c-5.453 5.453-11.725 10.957-18.944 16.333-17.101 12.621-33.331 20.147-48.026 24.755-15.565 4.813-31.77 7.296-48.333 7.296-67.251 0-126.49-41.216-150.886-101.939l-2.099-5.53c-0.691-13.107-10.573-25.702-26.573-24.755l-3.072 0.358c-6.298 0.998-12.646 1.51-19.021 1.51-56.704 0-104.806-41.011-114.33-96.358-2.074-12.032-12.365-20.915-24.576-21.248-45.645-1.203-82.099-38.477-82.099-84.198 0-44.954 35.2-81.715 79.565-84.198l4.787-0.128h73.779c14.131 0 25.6-11.469 25.6-25.6 0-13.133-9.882-23.962-22.605-25.421l-2.995-0.179h-73.779c-74.854 0-135.552 60.672-135.552 135.526 0 65.971 47.206 121.011 109.901 133.018l1.997 0.333 1.434 4.659c21.504 65.485 81.92 112.256 152.602 114.867l6.272 0.128 4.736-0.128c32.077 75.853 105.728 127.616 189.875 130.381l7.040 0.102zM744.909 650.47c107.29 0 194.278-86.989 194.278-194.304 0-105.165-83.61-190.822-188.006-194.15l-6.272-0.077h-157.773c-14.131 0-25.6 11.443-25.6 25.6 0 13.107 9.882 23.936 22.605 25.421l2.995 0.154h157.773c79.027 0 143.078 64.051 143.078 143.053 0 79.027-64.051 143.104-143.104 143.104-48.128 0-92.16-23.936-118.63-63.104-7.91-11.725-23.808-14.797-35.533-6.912-11.725 7.936-14.797 23.859-6.886 35.584 35.891 53.094 95.744 85.632 161.075 85.632z" />
<glyph unicode="&#xe905;" glyph-name="icon-account-security" d="M272 396.864c8.282 0 15.104-6.298 15.923-14.374l0.077-1.626v-207.706c0-6.886 5.21-12.544 11.904-13.274l1.446-0.077h425.856c6.886 0 12.544 5.197 13.274 11.891l0.077 1.459v41.498c0 8.832 7.168 16 16 16 8.282 0 15.104-6.298 15.923-14.374l0.077-1.626v-41.51c0-24.218-18.97-43.994-42.867-45.286l-2.483-0.064h-425.856c-24.205 0-43.994 18.97-45.286 42.854l-0.064 2.509v207.706c0 8.832 7.168 16 16 16zM514.278 454.003c38.682 0 70.029-31.36 70.029-70.029 0-33.178-23.066-60.966-54.042-68.198l0.013-77.619c0-8.832-7.168-16-16-16-8.282 0-15.104 6.298-15.923 14.362l-0.077 1.638v77.619c-30.976 7.245-54.016 35.034-54.016 68.198 0 38.669 31.347 70.016 70.016 70.016zM514.278 780.8c97.050 0 175.974-77.606 178.074-174.144l0.051-3.981-0.013-61.952h34.816c24.192 0 43.981-18.982 45.274-42.88l0.064-2.496v-215.539c0-8.832-7.168-16-16-16-8.282 0-15.104 6.298-15.91 14.374l-0.090 1.626v215.552c0 6.886-5.21 12.544-11.904 13.274l-1.446 0.077-425.843 0.013c-6.874 0-12.544-5.222-13.274-11.904l-0.077-1.472v-43.968c0-8.832-7.168-16-16-16-8.282 0-15.104 6.298-15.91 14.374l-0.090 1.626v43.981c0 24.218 18.982 44.006 42.867 45.312l2.483 0.051 34.79 0.013v61.952c0.013 98.355 79.77 178.112 178.15 178.112zM514.278 422.003c-20.992 0-38.016-17.024-38.016-38.029s17.024-38.029 38.016-38.029c20.992 0 38.029 17.024 38.029 38.016 0 21.005-17.024 38.042-38.016 38.042zM514.278 748.8c-79.437 0-144.077-63.398-146.086-142.349l-0.038-3.776-0.013-61.952h292.262v61.952c0 80.704-65.408 146.125-146.125 146.125z" />
<glyph unicode="&#xe906;" glyph-name="icon-actions" d="M640 832c0 70.4-57.6 128-128 128s-128-57.6-128-128c0-70.4 57.6-128 128-128s128 57.6 128 128zM384 448c0-70.4 57.6-128 128-128s128 57.6 128 128c0 70.4-57.6 128-128 128s-128-57.6-128-128zM384 64c0-70.4 57.6-128 128-128s128 57.6 128 128c0 70.4-57.6 128-128 128s-128-57.6-128-128z" />
<glyph unicode="&#xe907;" glyph-name="icon-activity-logs" d="M706.202 163.52c8.832 0 16-7.168 16-16 0-8.294-6.298-15.104-14.362-15.923l-1.638-0.077h-523.802c-8.832 0-16 7.168-16 16 0 8.282 6.298 15.104 14.362 15.91l1.638 0.090h523.802zM729.805 729.6c74.291 0 134.707-59.238 136.64-133.043l0.038-3.635c0-54.464-44.16-98.624-98.624-98.624l-0.653 0.013h-142.080v-279.59c0-8.832-7.168-16-16-16-8.282 0-15.104 6.285-15.91 14.362l-0.090 1.638v378.202c0 42.010 18.97 79.603 48.794 104.678h-241.792c-56.742 0-102.938-45.146-104.627-101.478l-0.038-3.2v-378.202c0-8.832-7.168-16-16-16-8.282 0-15.104 6.298-15.923 14.362l-0.077 1.638v378.202c0.013 74.266 59.226 134.694 133.043 136.627l3.622 0.051h329.664zM542.925 280.192c8.832 0 16-7.168 16-16 0-8.294-6.285-15.104-14.362-15.923l-1.638-0.090h-195.405c-8.832 0-16 7.168-16 16 0 8.294 6.298 15.104 14.374 15.923l1.626 0.077h195.418zM542.925 396.851c8.832 0 16-7.168 16-16 0-8.282-6.285-15.104-14.362-15.91l-1.638-0.090h-195.405c-8.832 0-16 7.168-16 16 0 8.282 6.298 15.104 14.374 15.923l1.626 0.077h195.418zM542.925 513.523c8.832 0 16-7.168 16-16 0-8.282-6.285-15.104-14.362-15.923l-1.638-0.077h-195.405c-8.832 0-16 7.168-16 16 0 8.282 6.298 15.104 14.374 15.91l1.626 0.090h195.418zM729.805 697.587c-56.742 0-102.938-45.133-104.627-101.466l-0.051-3.2v-66.611l70.016-0.013c-12.147 13.248-20.723 29.837-24.192 48.23l-0.422 2.394h-13.542c-8.282 0-15.104 6.298-15.91 14.362l-0.090 1.638c0 8.282 6.298 15.104 14.374 15.91l1.626 0.090h28.25c8.832 0 16-7.168 16-16 0-36.608 29.53-66.317 66.061-66.624h0.73l2.65 0.051c35.494 1.485 63.808 30.72 63.808 66.56 0 57.83-46.861 104.691-104.678 104.691zM542.925 630.195c8.832 0 16-7.168 16-16 0-8.294-6.285-15.104-14.362-15.923l-1.638-0.077h-195.405c-8.832 0-16 7.168-16 16 0 8.282 6.298 15.104 14.374 15.91l1.626 0.090h195.418z" />
<glyph unicode="&#xe908;" glyph-name="icon-add" d="M810.667 405.333h-256v-256h-85.333v256h-256v85.333h256v256h85.333v-256h256z" />
<glyph unicode="&#xe909;" glyph-name="icon-admin-accounts" d="M390.88 547.52c0.64 5.040 1.12 10.080 1.12 15.44 0 5.344-0.48 10.4-1.12 15.44l33.76 25.984c3.040 2.368 3.84 6.624 1.92 10.080l-32 54.512c-1.44 2.528-4.16 3.936-7.040 3.936-0.96 0-1.92-0.16-2.72-0.48l-39.84-15.744c-8.32 6.304-17.28 11.504-27.040 15.44l-6.080 41.76c-0.48 3.776-3.84 6.608-7.84 6.608h-64c-4 0-7.36-2.832-7.84-6.624l-6.080-41.744c-9.76-3.936-18.72-9.28-27.040-15.44l-39.84 15.76c-0.96 0.32-1.92 0.48-2.88 0.48-2.72 0-5.44-1.44-6.88-3.952l-32-54.512c-2.080-3.456-1.12-7.712 1.92-10.080l33.76-25.984c-0.64-5.056-1.12-10.24-1.12-15.44s0.48-10.4 1.12-15.44l-33.76-26c-3.040-2.368-3.84-6.608-1.92-10.080l32-54.512c1.44-2.512 4.16-3.936 7.040-3.936 0.96 0 1.92 0.16 2.72 0.48l39.84 15.744c8.32-6.304 17.28-11.504 27.040-15.44l6.080-41.744c0.48-3.776 3.84-6.624 7.84-6.624h64c4 0 7.36 2.848 7.84 6.624l6.080 41.76c9.76 3.92 18.72 9.28 27.040 15.424l39.84-15.744c0.96-0.32 1.92-0.48 2.88-0.48 2.72 0 5.44 1.424 6.88 3.936l32 54.512c1.92 3.472 1.12 7.712-1.92 10.080l-33.76 26zM359.2 574.448c0.64-4.88 0.8-8.192 0.8-11.488 0-3.312-0.32-6.784-0.8-11.52l-2.24-17.792 14.24-11.024 17.28-13.232-11.2-19.056-36.96 14.64-14.4-10.72c-6.88-5.024-13.44-8.8-20-11.488l-16.96-6.768-2.56-17.808-3.2-21.28h-22.4l-3.040 21.28-2.56 17.808-16.96 6.768c-6.88 2.832-13.28 6.464-19.68 11.184l-14.56 11.040-16.96-6.784-20.32-8.032-11.2 19.056 17.28 13.232 14.24 11.040-2.24 17.792c-0.48 4.88-0.8 8.512-0.8 11.664s0.32 6.768 0.8 11.488l2.24 17.808-14.24 11.040-17.28 13.216 11.2 19.072 20.32-8.032 16.64-6.624 14.4 10.72c6.88 5.040 13.44 8.8 20 11.488l16.96 6.784 2.56 17.792 3.2 21.28h22.24l3.040-21.28 2.56-17.792 16.96-6.784c6.88-2.832 13.28-6.448 19.68-11.184l14.56-11.024 16.96 6.768 20.32 8.048 11.2-19.072-17.12-13.392-14.24-11.024 2.24-17.808zM272 625.968c-35.36 0-64-28.192-64-63.008s28.64-63.024 64-63.024 64 28.208 64 63.024-28.64 63.008-64 63.008zM272 531.44c-17.6 0-32 14.192-32 31.52s14.4 31.504 32 31.504 32-14.176 32-31.52c0-17.312-14.4-31.504-32-31.504zM297.344 146.080l-0.72-0.48-3.424-1.568-1.232-0.352-2.24-0.384 30.080 0.24 70.16 0.128 554.016-0.448c9.28-0.016 16.8 7.52 16.8 16.8 0 184.112-154.496 333.12-344.8 333.12l-5.68-0.048c-187.68-2.944-339.104-150.8-338.992-333.088l-0.096-0.848 0.848-4.496c5.472-11.6 17.44-13.456 25.28-8.56zM621.536 459.488c162.080-2.72 293.76-124.64 304.896-278.336l0.272-4.336-621.408 0.256 0.256 4.080c11.28 155.44 145.84 278.368 310.448 278.368l5.536-0.032zM616 880.8c-99.728 0-180.8-78.192-180.8-174.96s81.072-174.96 180.8-174.96c99.712 0 180.8 78.192 180.8 174.96s-81.104 174.96-180.8 174.96zM616 847.2c81.424 0 147.2-63.424 147.2-141.36 0-77.92-65.776-141.36-147.2-141.36-81.44 0-147.2 63.424-147.2 141.36 0 77.92 65.76 141.36 147.2 141.36z" />
<glyph unicode="&#xe90a;" glyph-name="icon-admin-users" d="M507.226 780.8c8.602 0 17.203-0.333 25.805-0.986 30.067-2.253 53.504-26.726 54.899-56.576l0.064-3.75c0-11.341 7.194-21.504 18.304-25.779 13.952-5.376 27.43-11.866 40.32-19.43 9.638-5.632 21.12-5.402 29.85 0.422l1.818 1.331 0.614 0.486c24.55 19.584 59.981 16.55 81.331-6.618 11.264-12.211 21.632-25.242 31.040-38.989 17.229-25.178 13.158-58.944-9.434-78.848l-2.714-2.253c-8.883-7.078-12.339-19.072-8.742-30.502 4.416-14.054 7.706-28.493 9.83-43.213 1.587-11.021 8.998-19.866 18.97-22.989l2.035-0.55 0.922-0.205c30.541-6.976 50.176-36.48 45.53-67.584-2.47-16.563-6.144-32.832-10.957-48.691-8.845-29.235-37.926-47.13-67.904-41.754l-2.995 0.614c-11.085 2.522-22.63-2.266-29.286-12.186-5.619-8.41-11.674-16.474-18.15-24.166l-0.179-0.205-0.512-0.55 0.691 0.768c-0.435-0.512-0.896-0.998-1.37-1.446l-0.563-0.512-0.806-0.64-0.384-0.256c-0.845-0.589-1.728-1.088-2.65-1.498l1.421 0.73c-0.602-0.346-1.216-0.64-1.843-0.896-0.333-0.141-0.678-0.269-1.024-0.384l-0.73-0.218c-0.294-0.090-0.589-0.154-0.87-0.218-0.243-0.051-0.474-0.102-0.717-0.128-0.333-0.077-0.678-0.128-1.024-0.154l-0.486-0.051-1.19-0.038h-0.474c-0.384 0.013-0.768 0.038-1.139 0.077l-0.512 0.064c-0.358 0.051-0.717 0.102-1.075 0.179l-0.666 0.154-0.832 0.23-0.704 0.23-1.011 0.397-0.448 0.218c-0.32 0.141-0.64 0.307-0.947 0.474l-0.64 0.384-0.717 0.474-0.717 0.525c-0.128 0.128-0.282 0.23-0.422 0.346l-0.218 0.179c-0.218 0.192-0.435 0.384-0.64 0.602l0.858-0.768c-0.512 0.422-0.986 0.883-1.434 1.357-0.23 0.243-0.448 0.512-0.666 0.768l-0.384 0.499c-0.179 0.218-0.346 0.461-0.512 0.691l-0.55 0.896-0.077 0.128c-29.786 52.48-81.024 90.278-140.723 103.027-12.928 2.765-17.114 19.136-7.091 27.776 23.411 20.16 38.438 56.794 38.438 97.536 0 63.296-35.584 112.934-76.454 112.934-40.858 0-76.454-49.638-76.454-112.934 0-40.742 15.040-77.376 38.451-97.536 10.022-8.64 5.837-25.011-7.091-27.776-40.397-8.627-77.184-28.762-106.15-57.69-6.259-6.246-16.384-6.234-22.63 0.013-6.246 6.259-6.234 16.384 0.013 22.63 26.368 26.33 58.381 46.336 93.619 58.445l2.432 0.806c-18.624 25.574-29.696 59.699-30.592 96.32l-0.051 4.787c0 79.117 47.206 144.934 108.454 144.934 61.261 0 108.454-65.818 108.454-144.934 0-36.672-10.214-71.142-27.994-97.357l-2.65-3.738 4.173-1.434c48.128-16.947 89.766-48.525 118.989-90.010l2.586 3.763c13.389 19.981 36.89 30.285 60.48 26.086l3.008-0.64c14.144-3.213 28.365 5.184 32.666 19.354 4.365 14.387 7.68 29.12 9.92 44.134 2.112 14.067-6.118 27.2-19.059 31.142l-1.869 0.512-0.934 0.192c-23.206 5.299-40.666 23.987-45.146 47.36l-0.474 2.842c-1.869 13.005-4.774 25.766-8.678 38.17-7.194 22.912-0.64 47.59 17.062 63.232l2.739 2.278c11.328 9.037 13.606 25.357 5.21 37.619-8.538 12.48-17.958 24.294-28.16 35.379-9.536 10.342-24.806 12.147-36.032 4.608l-1.83-1.331-0.602-0.486c-19.379-15.475-46.221-16.986-67.814-4.326-9.114 5.338-18.56 10.086-28.262 14.195l-7.347 2.957c-22.4 8.614-37.632 29.222-38.758 52.813l-0.064 3.789c0 14.4-11.085 26.406-25.37 27.482-7.808 0.589-15.616 0.883-23.398 0.883-7.808 0-15.616-0.294-23.424-0.896-13.594-1.024-24.294-11.955-25.28-25.434l-0.077-2.035v-0.947c0-23.808-14.336-44.992-36.134-54.541l-2.65-1.088c-10.010-3.866-19.738-8.358-29.12-13.478l-6.976-3.955c-20.672-12.186-46.208-11.328-65.357 2.355l-3.008 2.291c-11.341 9.050-27.802 7.616-37.862-3.328-10.15-11.046-19.558-22.899-28.096-35.418-7.936-11.648-6.272-26.957 3.674-36.237l2.163-1.843c19.341-15.411 26.79-41.152 19.341-64.973-3.994-12.774-6.938-25.882-8.768-39.27-3.302-23.859-20.045-43.418-42.88-49.805l-3.046-0.768c-14.131-3.226-23.27-17.024-20.966-31.808 2.304-14.925 5.722-29.632 10.189-44.058 4.16-13.427 17.203-21.606 30.554-19.597l1.997 0.384 0.998 0.23c23.142 5.274 46.912-3.917 61.094-22.925l1.664-2.33c7.552-11.149 15.949-21.594 25.088-31.232 16.576-17.472 21.453-42.675 12.262-64.512l-1.216-2.714c-6.298-13.069-1.242-28.826 11.648-36.16 13.146-7.475 26.79-13.978 40.858-19.456 13.184-5.12 27.75-0.051 34.522 11.686l0.947 1.818 0.358 0.742c10.752 22.31 34.214 35.29 59.098 33.331 6.195-0.474 12.326-0.717 18.406-0.717 7.091 0 14.106 0.294 21.056 0.896 23.974 2.061 46.694-9.907 57.984-30.72l1.306-2.534c6.31-13.133 21.811-18.97 35.674-13.44 14.029 5.619 27.61 12.25 40.666 19.827 12.134 7.040 17.216 21.53 12.314 34.15l-0.87 1.984-0.384 0.832c-3.814 7.974-0.435 17.536 7.552 21.325 7.475 3.571 16.333 0.819 20.544-6.106l0.768-1.446 0.384-0.768c13.568-28.186 2.88-61.888-24.23-77.645-14.4-8.358-29.389-15.667-44.864-21.862-28.454-11.379-60.685 0.102-75.072 26.688l-1.306 2.534c-4.941 10.278-15.872 16.32-27.725 15.309-7.859-0.678-15.795-1.024-23.808-1.024-6.899 0-13.85 0.282-20.877 0.819-11.213 0.883-21.491-4.365-26.79-13.466l-0.998-1.869-0.358-0.742c-13.568-28.198-46.63-40.819-75.904-29.414-15.514 6.042-30.566 13.21-45.056 21.453-27.43 15.59-38.323 49.536-24.678 77.862 4.954 10.278 2.829 22.618-5.414 31.296-10.355 10.918-19.84 22.72-28.378 35.328-6.234 9.19-16.704 13.901-27.008 12.403l-2.048-0.384-1.024-0.243c-30.49-6.95-61.018 10.97-70.298 40.934-4.941 15.923-8.704 32.154-11.238 48.627-4.723 30.259 13.619 59.11 42.714 67.213l3.034 0.768c11.085 2.522 19.43 11.878 21.056 23.667 2.086 15.155 5.402 30.003 9.946 44.467 3.328 10.675 0.512 21.837-7.232 29.069l-2.138 1.818c-24.499 19.533-29.44 54.643-11.725 80.64 9.421 13.798 19.776 26.842 30.976 39.040 20.646 22.477 54.528 26.074 78.912 8.55l2.406-1.818 0.55-0.422c8.896-7.104 21.376-7.795 31.693-1.715 13.030 7.68 26.675 14.272 40.832 19.712 10.394 4.006 17.357 13.184 18.189 23.667l0.090 2.112v0.947c0 31.104 23.962 57.062 54.938 59.392 8.614 0.627 17.229 0.973 25.843 0.973z" />
<glyph unicode="&#xe90b;" glyph-name="icon-all-good" d="M560.128 862.362l3.238-1.766 188.032-107.558c4.664-2.696 7.752-7.659 7.752-13.343 0-8.483-6.877-15.36-15.36-15.36-2.225 0-4.34 0.473-6.249 1.325l0.098-0.039-1.498 0.755-188.032 107.558c-8.977 5.222-19.758 8.305-31.258 8.305-10.39 0-20.193-2.516-28.832-6.973l0.352 0.165-2.79-1.498-285.478-163.277c-17.847-10.285-29.935-28.818-31.059-50.255l-0.006-0.152-0.077-2.995v-326.528c0-21.018 10.803-40.512 28.557-51.84l2.586-1.562 285.466-163.29c8.987-5.214 19.775-8.291 31.281-8.291 10.384 0 20.183 2.506 28.824 6.946l-0.355-0.166 2.79 1.51 285.44 163.29c17.867 10.277 29.971 28.818 31.098 50.267l0.006 0.152 0.077 2.982v326.528c0 1.408-0.038 2.752-0.128 4.019-0.012 0.231-0.019 0.502-0.019 0.774 0 8.483 6.877 15.36 15.36 15.36 8.016 0 14.599-6.141 15.298-13.976l0.004-0.059 0.154-3.021 0.051-3.098v-326.528c-0.043-32.881-17.286-61.725-43.213-78.022l-0.383-0.225-3.046-1.818-285.44-163.302c-13.364-7.756-29.406-12.334-46.518-12.334-15.823 0-30.732 3.914-43.811 10.827l0.511-0.246-3.226 1.766-285.478 163.29c-27.002 15.597-45.198 43.804-46.535 76.361l-0.006 0.183-0.064 3.52v326.528c0.037 32.873 17.265 61.715 43.176 78.022l0.383 0.225 3.046 1.818 285.466 163.264c13.366 7.783 29.418 12.378 46.543 12.378 15.821 0 30.725-3.921 43.796-10.844l-0.509 0.246zM886.080 754.483c2.75-2.775 4.449-6.594 4.449-10.811 0-3.677-1.292-7.052-3.447-9.697l0.022 0.028-1.126-1.242-427.84-423.475c-2.774-2.744-6.59-4.44-10.802-4.44-3.578 0-6.87 1.223-9.481 3.274l0.033-0.025-1.344 1.165-119.13 117.389c-2.883 2.796-4.673 6.705-4.673 11.032 0 8.483 6.877 15.36 15.36 15.36 3.658 0 7.017-1.279 9.655-3.413l-0.029 0.023 1.254-1.114 108.314-106.739 417.062 412.8c2.774 2.745 6.59 4.441 10.803 4.441 4.27 0 8.133-1.742 10.917-4.555l0.001-0.001z" />
<glyph unicode="&#xe90c;" glyph-name="icon-android" d="M708.693 313.6c-19.627 0-35.84 15.787-35.84 35.413s16.213 34.987 35.84 34.987v0c19.627 0 35.84-15.36 35.84-34.987s-16.213-35.413-35.84-35.413zM316.16 313.6c-19.627 0-35.84 15.787-35.84 35.413s16.213 34.987 35.84 34.987v0c19.627 0 35.413-15.36 35.413-34.987s-15.787-35.413-35.413-35.413zM721.493 527.36l71.253 122.88c3.84 7.253 1.28 16.213-5.547 20.053-7.253 4.267-16.213 1.707-19.2-5.547l-72.96-124.16c-57.173 26.027-119.040 39.68-183.040 39.253-65.28 0-128-14.080-182.187-38.827l-72.107 124.16c-3.84 7.253-12.8 9.813-20.053 5.547-7.253-3.84-9.387-12.8-5.547-20.053l70.827-122.88c-121.6-66.56-205.227-189.867-217.6-335.787h853.333c-11.947 145.493-95.147 268.8-217.173 335.36v0z" />
<glyph unicode="&#xe90d;" glyph-name="icon-announcement" d="M853.333 874.667h-682.667c-46.933 0-85.333-38.4-85.333-85.333v-768l170.667 170.667h597.333c46.933 0 85.333 38.4 85.333 85.333v512c0 46.933-38.4 85.333-85.333 85.333zM853.333 277.333h-632.747l-49.92-49.92v561.92h682.667v-512zM469.333 746.667h85.333v-256h-85.333v256zM469.333 405.333h85.333v-85.333h-85.333v85.333z" />
<glyph unicode="&#xe90e;" glyph-name="icon-apple-deployment" d="M460.081 858.043l-285.47-163.298c-27.995-16.175-46.546-45.938-46.612-80.040v-326.537c0.074-34.113 18.612-63.879 46.149-79.842l0.443-0.237 285.499-163.279c13.363-7.755 29.403-12.332 46.513-12.332s33.151 4.577 46.965 12.573l-0.452-0.241 285.44 163.279c28.012 16.178 46.577 45.952 46.651 80.068v326.549c-0.067 34.122-18.641 63.892-46.215 79.812l-0.446 0.237-285.42 163.298c-13.364 7.764-29.408 12.347-46.523 12.347s-33.159-4.583-46.974-12.588l0.451 0.241v-0.010zM537.866 831.38l285.44-163.289c18.712-10.762 31.123-30.618 31.183-53.377v-326.536c-0.066-22.775-12.474-42.637-30.885-53.257l-0.298-0.159-285.44-163.279c-8.983-5.206-19.763-8.279-31.262-8.279s-22.279 3.072-31.566 8.441l0.304-0.162-285.479 163.279c-18.688 10.793-31.077 30.65-31.143 53.406v326.537c0.055 22.755 12.445 42.603 30.836 53.218l0.297 0.158 285.489 163.298c8.98 5.215 19.761 8.294 31.262 8.294s22.281-3.078 31.565-8.456l-0.303 0.162zM426.319 618.683c16.975 0 31.714-6.055 44.446-12.239l10.368-5.13 4.805-2.304 4.529-2.078c7.296-3.249 13.332-5.337 17.339-5.435 5.022 0.345 11.845 2.353 19.692 5.238l5.386 2.038 5.632 2.245 8.842 3.643c15.124 6.302 31.882 13.056 49.694 13.922l3.84 0.098c37.573 0 72.054-23.532 90.516-48.207 3.269-4.411 2.471-11.323-1.703-14.868-31.724-26.516-56.094-57.886-56.094-84.628 0.345-35.003 27.215-62.858 60.859-84.106 3.387-2.393 5.199-6.853 4.431-10.929-5.839-32.246-21.494-64.866-41.758-90.27-19.564-24.517-43.618-43.126-69.809-44.377l-2.816-0.069c-15.035 0-27.874 3.968-38.833 8.418l-5.327 2.255-10.85 4.795c-7.877 3.417-14.444 5.908-19.761 6.351l-1.595 0.059c-4.372 0-10.279-1.684-17.319-4.234l-4.844-1.822-10.565-4.194c-12.889-5.169-27.973-10.762-45.115-11.54l-3.988-0.089c-15.675 0-30.297 9.167-44.662 22.745-14.366 13.568-28.554 32.226-41.255 54.528-24.615 43.205-43.776 99.889-44.948 157.814l-0.059 5.612c-1.014 70.036 52.047 134.853 127.754 136.714l3.17 0.039zM600.881 589.145v0c-6.577 0-13.007-1.132-21.553-3.899l-4.47-1.516c-0.778-0.276-1.575-0.561-2.383-0.866l-5.12-1.95-5.612-2.265-11.963-4.933-5.287-2.127-4.825-1.871-6.479-2.383-3.889-1.3-3.614-1.103c-2.186-0.63-4.401-1.182-6.626-1.644l-3.111-0.571c-1.174-0.205-2.75-0.407-4.341-0.552l-0.257-0.019-2.875-0.207-1.349 0.030c-8.025 0.187-15.409 2.166-25.846 6.676l-4.677 2.087-7.847 3.751-5.898 2.914c-16.138 8.094-25.186 11.353-34.737 11.717l-4.549-0.010c-55.355-1.575-98.048-48.118-98.639-104.359v-2.816c0-50.235 15.636-104.054 41.137-148.805 11.254-19.761 23.69-36.165 35.87-47.685 11.008-10.398 18.954-14.671 24.379-14.671 10.388 0 19.998 2.422 35.023 8.281l13.489 5.346 6.38 2.442 3.712 1.339 3.348 1.132 4.47 1.339 2.708 0.679 2.56 0.512c1.26 0.226 2.491 0.394 3.732 0.522l3.771 0.246 4.076 0.039 2.757-0.098c1.319-0.079 2.609-0.197 3.879-0.354l2.54-0.414c1.28-0.236 2.58-0.542 3.938-0.916l2.806-0.837c1.024-0.335 2.038-0.679 3.042-1.054l3.348-1.27 3.732-1.506 4.175-1.772 10.033-4.421c14.671-6.538 23.956-9.236 34.678-9.236 14.494 0 32.049 11.412 49.526 33.329 14.966 18.767 26.693 41.748 32.916 64.492l0.246 0.985-1.211 0.847c-37.602 26.831-60.318 58.831-61.834 97.418l-0.089 3.151c0 31.084 19.259 63.055 50.836 93.164l1.329 1.26-2.117 1.881c-14.572 12.544-33.122 21.012-50.619 21.79l-2.619 0.059zM599.001 724.332c6.085-37.1-3.466-66.009-21.986-85.652s-44.702-30.208-71.434-36.234l-1.152-0.197-1.152-0.039c-5.396 0.118-10.604 4.657-10.988 10.142-2.983 39.424 6.469 66.599 24.379 84.795 15.065 15.321 34.747 23.995 55.946 31.557l8.015 2.796 4.057 1.378c1.103 0.325 2.225 0.532 3.367 0.62l1.083 0.039c4.697-0.030 8.694-2.619 9.866-9.216v0.010zM570.998 695.040l0.108 1.497-0.827-0.335c-15.793-6.39-24.911-11.993-32.561-19.771-8.537-8.684-13.991-20.706-15.783-37.228l-0.128-1.26 2.678 1.024c11.914 4.775 21.602 10.732 29.056 17.969l1.969 2.009c8.743 9.265 14.139 21.346 15.488 36.096z" />
<glyph unicode="&#xe90f;" glyph-name="icon-apple" d="M798.293 128c-35.413-52.907-72.96-104.533-130.133-105.387-57.173-1.28-75.52 33.707-140.373 33.707-65.28 0-85.333-32.853-139.52-34.987-55.893-2.133-98.133 56.32-133.973 107.947-72.96 105.387-128.853 299.52-53.76 430.080 37.12 64.853 103.68 105.813 175.787 107.093 54.613 0.853 106.667-37.12 140.373-37.12 33.28 0 96.427 45.653 162.56 38.827 27.733-1.28 105.387-11.093 155.307-84.48-3.84-2.56-92.587-54.613-91.733-162.56 1.28-128.853 113.067-171.947 114.347-172.373-1.28-2.987-17.92-61.44-58.88-120.747zM554.667 810.667c31.147 35.413 82.773 62.293 125.44 64 5.547-49.92-14.507-100.267-44.373-136.107-29.44-36.267-78.080-64.427-125.867-60.587-6.4 49.067 17.493 100.267 44.8 132.693z" />
<glyph unicode="&#xe910;" glyph-name="icon-archived" d="M810.667 576v-426.667h-597.333v426.667h597.333zM646.204 490.667l-176.871-180.090-87.040 94.757-40.96-35.281 128-135.385 213.333 220.719-36.462 35.281zM853.333 746.667v-128h-682.667v128h682.667z" />
<glyph unicode="&#xe911;" glyph-name="icon-arrows" d="M597.333 448l256-234.667-256-234.667-0.043 170.667h-426.624v128h426.667v170.667zM426.667 917.333v-170.667h426.667v-128h-426.667v-170.667l-256 234.667 256 234.667z" />
<glyph unicode="&#xe912;" glyph-name="icon-back-office" d="M140.288 361.677h260.096v-74.752h-260.096v74.752zM140.288 557.773h365.568v-74.752h-365.568v74.752zM140.288 753.766h480.87v-74.752h-480.87v74.752zM1013.76 207.565v65.331h-68.301c-5.53 38.605-20.378 73.933-42.598 103.731l48.128 48.435-45.978 46.182-48.23-48.435c-29.696 22.323-64.717 37.274-103.219 42.803v68.71h-65.024v-68.608c-38.4-5.53-73.523-20.48-103.219-42.803l-48.128 48.435-45.978-46.182 48.128-48.435c-22.323-29.901-37.069-65.126-42.598-103.731h-68.301v-65.331h68.301c5.53-38.605 20.378-73.933 42.598-103.731l-48.128-48.435 45.978-46.182 52.326 46.285c29.696-22.323 60.621-35.123 99.123-40.653v-68.71h65.024v68.608c38.4 5.53 73.523 20.48 103.219 42.803l48.23-48.435 45.978 46.285-48.128 48.435c22.323 29.901 37.069 65.126 42.598 103.731l68.198-0.102zM883.712 240.23c0-90.010-72.909-163.328-162.509-163.328-89.702 0-162.509 73.318-162.509 163.328s72.909 163.328 162.509 163.328c89.6 0 162.509-73.216 162.509-163.328zM335.36 175.104h-250.675v695.194h592.077v-247.194h74.445v326.656h-740.966v-849.408h325.12v74.752z" />
<glyph unicode="&#xe913;" glyph-name="icon-back" d="M273.973 704l46.027-48.384-197.568-207.616h581.568v-64h-581.44l197.44-207.616-46.027-48.384-227.945 239.616v0.384l-45.707 48 45.707 48v0.384l227.945 239.616z" />
<glyph unicode="&#xe914;" glyph-name="icon-bell" d="M597.333 192c0-12.8-4.267-25.6-8.533-34.133-8.533-25.6-29.867-46.933-59.733-51.2v0h-17.067c-46.933 0-85.333 38.4-85.333 85.333v0zM512 789.333c28.11 0 42.667-23.893 42.667-51.2v0-34.133c128 0 213.333-115.913 213.333-221.726v0-162.274l42.667-51.34v-34.133h-597.333v34.133l42.667 51.34v162.274c0 105.813 85.333 221.726 213.333 221.726v0 34.133c0 27.307 14.557 51.2 42.667 51.2zM554.667 618.667h-85.333c-69.783 0-128-65.814-128-136.393v0-162.414h341.333v162.414c0 70.579-58.217 136.393-128 136.393v0z" />
<glyph unicode="&#xe915;" glyph-name="icon-billing" d="M698.906 337.536c0.004 0 0.010 0 0.015 0 37.066 0 68.012-26.201 75.328-61.093l0.088-0.501h46.618c0.008 0 0.018 0 0.028 0 8.483 0 15.36-6.877 15.36-15.36 0-7.943-6.029-14.478-13.76-15.278l-0.066-0.006-1.574-0.077-46.605-0.013c-7.387-35.413-38.343-61.635-75.424-61.635s-68.037 26.222-75.336 61.135l-0.088 0.5h-95.526c-7.405-35.39-38.35-61.589-75.415-61.589-25.107 0-47.407 12.022-61.456 30.623l-0.141 0.194c-14.193-18.786-36.488-30.8-61.59-30.8-37.060 0-68.004 26.189-75.333 61.070l-0.088 0.501h-46.579c-0.055-0.001-0.121-0.001-0.186-0.001-8.483 0-15.36 6.877-15.36 15.36 0 7.994 6.107 14.562 13.911 15.293l0.061 0.005 1.574 0.077h46.592c7.418 35.382 38.361 61.571 75.421 61.571 25.102 0 47.397-12.014 61.449-30.606l0.14-0.194c14.19 18.788 36.485 30.804 61.587 30.804 37.059 0 68.001-26.192 75.324-61.075l0.088-0.501h95.526c7.408 35.391 38.353 61.589 75.417 61.594v0zM698.906 306.816c-25.529-0.007-46.221-20.704-46.221-46.234v0 0.154-0.307c0.087-25.468 20.753-46.080 46.233-46.080 25.534 0 46.234 20.699 46.234 46.234s-20.699 46.234-46.234 46.234c-0.004 0-0.009 0-0.013 0h0.001zM452.544 306.816c-25.538 0-46.24-20.702-46.24-46.24s20.702-46.24 46.24-46.24v0c25.538 0 46.24 20.702 46.24 46.24s-20.702 46.24-46.24 46.24v0zM329.37 306.816c-25.534 0-46.234-20.699-46.234-46.234v0 0.154-0.307c0.087-25.468 20.753-46.080 46.233-46.080 25.534 0 46.234 20.699 46.234 46.234s-20.699 46.234-46.234 46.234c-0.004 0-0.009 0-0.013 0h0.001zM698.906 527.168c0.004 0 0.010 0 0.015 0 37.066 0 68.012-26.201 75.328-61.093l0.088-0.501h46.618c0.008 0 0.018 0 0.028 0 8.483 0 15.36-6.877 15.36-15.36 0-7.943-6.029-14.478-13.76-15.278l-0.066-0.006-1.574-0.077h-46.605c-7.4-35.397-38.348-61.602-75.417-61.602-25.113 0-47.417 12.028-61.466 30.637l-0.141 0.195c-14.193-18.786-36.488-30.8-61.59-30.8-37.060 0-68.004 26.189-75.333 61.070l-0.088 0.501h-95.514c-7.387-35.413-38.343-61.635-75.424-61.635s-68.037 26.222-75.336 61.135l-0.088 0.5h-46.579c-0.012 0-0.026 0-0.041 0-8.483 0-15.36 6.877-15.36 15.36 0 7.943 6.029 14.478 13.761 15.278l0.066 0.006 1.574 0.077h46.592c7.425 35.373 38.364 61.553 75.418 61.553s67.992-26.179 75.329-61.051l0.088-0.502h95.526c7.418 35.382 38.361 61.571 75.421 61.571 25.102 0 47.397-12.014 61.449-30.606l0.14-0.194c14.157 18.796 36.432 30.822 61.517 30.822 0.027 0 0.054 0 0.081 0h-0.004zM698.906 496.448c-25.534 0-46.234-20.699-46.234-46.234s20.699-46.234 46.234-46.234v0c25.534 0 46.234 20.699 46.234 46.234s-20.699 46.234-46.234 46.234v0zM575.731 496.448c-25.534 0-46.234-20.699-46.234-46.234v0 0.166-0.333c0.095-25.462 20.758-46.067 46.233-46.067 25.534 0 46.234 20.699 46.234 46.234s-20.699 46.233-46.233 46.234v0zM329.37 496.448c-25.534 0-46.234-20.699-46.234-46.234v0 0.166-0.32c0.087-25.468 20.753-46.080 46.233-46.080 25.534 0 46.234 20.699 46.234 46.234s-20.699 46.234-46.234 46.234c-0.004 0-0.009 0-0.013 0h0.001zM575.718 716.8c0.001 0 0.003 0 0.005 0 37.061 0 68.004-26.195 75.325-61.080l0.088-0.501 169.792-0.013c0.008 0 0.018 0 0.028 0 8.483 0 15.36-6.877 15.36-15.36 0-7.943-6.029-14.478-13.76-15.278l-0.066-0.006-1.562-0.077h-169.792c-7.405-35.39-38.35-61.589-75.415-61.589-25.107 0-47.407 12.022-61.456 30.623l-0.141 0.194c-14.157-18.796-36.432-30.822-61.517-30.822-0.027 0-0.054 0-0.081 0h0.004c-0.017 0-0.037 0-0.058 0-25.090 0-47.371 12.025-61.395 30.627l-0.141 0.195c-14.193-18.784-36.487-30.797-61.588-30.797-37.064 0-68.010 26.194-75.335 61.080l-0.088 0.501-46.579-0.013c-0.012 0-0.026 0-0.041 0-8.483 0-15.36 6.877-15.36 15.36 0 7.943 6.029 14.478 13.761 15.278l0.066 0.006 1.574 0.077h46.592c7.418 35.382 38.361 61.571 75.421 61.571 25.102 0 47.397-12.014 61.449-30.606l0.14-0.194c14.157 18.796 36.432 30.822 61.517 30.822 0.027 0 0.054 0 0.081 0h-0.004c25.203 0 47.565-12.109 61.594-30.822 14.157 18.797 36.432 30.822 61.517 30.822 0.032 0 0.063 0 0.095 0h-0.005zM575.718 686.080c-25.534 0-46.234-20.699-46.234-46.234v0 0.282-0.55c0.147-24.556 19.414-44.565 43.657-45.896l0.119-0.005 2.458-0.064c25.534 0 46.234 20.699 46.234 46.234s-20.699 46.234-46.234 46.234v0zM452.531 686.080c-25.534 0-46.234-20.699-46.234-46.234s20.699-46.234 46.234-46.234c25.534 0 46.234 20.699 46.234 46.234v0l-0.013-0.282 0.013 0.576c-0.161 24.545-19.423 44.539-43.657 45.87l-0.119 0.005zM329.357 686.080c-0.001 0-0.002 0-0.003 0-24.579 0-44.679-19.181-46.148-43.391l-0.006-0.129c0.161-0.837 0.253-1.801 0.253-2.785 0-0.933-0.083-1.848-0.241-2.735l0.014 0.094c1.481-24.326 21.572-43.494 46.14-43.494 25.527 0 46.221 20.694 46.221 46.221s-20.694 46.221-46.221 46.221c-0.003 0-0.006 0-0.010 0v0z" />
<glyph unicode="&#xe916;" glyph-name="icon-bug" d="M676.563 857.718c13.551-21.036 15.881-120.839-32.041-170.091 1.071-5.481 2.095-11.203 3.073-17.131 0.113-0.687 0.211-1.287 0.299-1.82 30.025-12.988 54.317-31.397 72.994-55.352 33.448 3.173 57.413 14.899 74.787 35.456 18.164 21.492 27.202 47.618 27.202 80.229 0 23.564 19.103 42.667 42.667 42.667s42.667-19.103 42.667-42.667c0-52.267-15.816-97.987-47.361-135.311-26.412-31.251-61.042-51.553-102.535-60.769 3.599-14.696 6.216-30.542 7.816-47.453l1.868 0.072c69.499 0 122.987-23.936 155.162-72.656 28.707-43.468 41.611-86.152 36.699-127.549-2.777-23.4-23.997-40.119-47.397-37.342s-40.119 23.997-37.342 47.397c2.288 19.279-4.763 42.601-23.167 70.469-14.935 22.616-41.153 34.348-83.955 34.348l-1.332 0.097c-2.84-45.886-10.104-90.884-21.477-132.911l-3.658 1.604c55.619-22.827 90.267-62.108 98.674-115.263 7.983-50.474-2.126-92.298-33.38-120.699-17.439-15.847-44.423-14.557-60.271 2.882s-14.557 44.423 2.882 60.271c7.186 6.53 10.364 19.677 6.483 44.215-3.154 19.938-14.948 34.746-39.383 46.38-43.924-96.93-114.494-163.858-206.066-163.528-83.936 0.296-149.806 56.962-193.481 141.264-19.045-10.913-28.559-24.513-31.342-42.111-3.881-24.537-0.703-37.685 6.483-44.215 17.439-15.847 18.73-42.832 2.882-60.271s-42.832-18.73-60.271-2.882c-31.253 28.401-41.363 70.225-33.38 120.699 7.605 48.085 36.684 84.816 83.336 108.284-13.33 42.909-22.202 89.6-26.218 137.584-34.009-2.472-55.75-13.931-68.833-33.743-18.404-27.868-25.455-51.19-23.167-70.469 2.777-23.4-13.942-44.62-37.342-47.397s-44.62 13.942-47.397 37.342c-4.912 41.397 7.992 84.081 36.699 127.549 29.501 44.671 76.919 68.506 138.166 72.159 0.908 15.792 2.55 30.785 5.003 44.927-0.27 0.027-0.568 0.118-0.866 0.212-59.3 18.725-105.015 51.13-135.45 97.021-21.203 31.971-35.762 69.355-43.828 111.834-4.396 23.151 10.808 45.481 33.958 49.877s45.481-10.808 49.877-33.958c6.023-31.72 16.443-58.477 31.107-80.589 19.134-28.851 48.579-49.723 90.029-62.812l2.858-1.099c19.879 34.561 48.755 60.015 86.878 76.637 0.164 1.021 0.392 2.351 0.721 4.262 2.014 11.652 4.211 22.491 6.673 32.545-39.277 46.208-49.499 123.224-41.085 143.251 5.928 14.109 22.778 24.987 40.026 22.461 14.199-2.079 30.602-13.519 24.652-37.319-6.621-26.481-1.154-43.913 9.92-56.228 20.628 22.581 50.421 32.879 95.399 32.879 49.072-0.012 79.98-12.41 100.585-39.778 10.624 14.499 14.478 33.555 2.381 60.676-9.993 22.405 4.174 36.519 17.797 41.033 16.548 5.483 35.031-2.304 43.319-15.17zM512.671 614.034c-130.013 0.468-177.403-45.353-177.882-170.98-0.55-151.061 56.826-296.868 137.86-332.683l-0.013 397.112c5.36 15.455 18.482 23.183 39.364 23.183 18.794 0 31.313-6.259 37.556-18.778l1.848-4.405 0.042-396.25c79.976 37.124 137.235 181.062 137.805 330.557 0.473 125.608-46.573 171.769-176.581 172.244zM512.472 732.188c-33.154 0-43.429-5.639-52.025-41.952 16.475 1.771 33.977 2.634 52.509 2.568 17.91-0.065 34.851-0.992 50.832-2.79-8.485 36.348-18.895 42.167-51.316 42.175z" />
<glyph unicode="&#xe917;" glyph-name="icon-calendar" d="M308.403 737.485c14.126-0.016 25.572-11.471 25.572-25.6 0-13.073-9.799-23.857-22.453-25.408l-0.124-0.012-2.995-0.179-26.803 0.051v-445.133h435.84l0.026 445.133h-25.779c-13.082 0.002-23.871 9.815-25.409 22.482l-0.012 0.123-0.179 2.97c0 0.006 0 0.012 0 0.019 0 13.092 9.828 23.889 22.508 25.415l0.122 0.012 2.97 0.154h51.379c0.007 0 0.014 0 0.022 0 13.083 0 23.874-9.814 25.412-22.482l0.012-0.123 0.154-2.995v-599.885c-0.002-13.082-9.815-23.871-22.482-25.409l-0.123-0.012-2.995-0.179h-487.066c-13.089 0.003-23.883 9.83-25.409 22.508l-0.012 0.122-0.179 2.944v599.885c0 0.006 0 0.012 0 0.019 0 13.092 9.828 23.889 22.508 25.415l0.122 0.012 2.97 0.154h52.403zM717.44 189.978h-435.84v-52.352h435.866v52.352zM496.128 563.123c41.984 0 80.077-30.694 80.077-83.072 0-44.672-20.48-65.894-64.435-85.53l-10.726-4.608c-4.941-2.099-9.19-3.968-12.826-5.734l-6.528-3.328c-10.573-5.888-13.875-10.65-14.362-18.202l-0.077-1.818h83.354c13.089-0.003 23.883-9.83 25.409-22.508l0.012-0.122 0.179-2.97c-0.003-13.089-9.83-23.883-22.508-25.409l-0.122-0.012-2.97-0.179h-109.005c-13.082 0.002-23.871 9.815-25.409 22.482l-0.012 0.123-0.154 2.995v25.293c0 38.605 17.971 55.808 59.443 74.138l10.573 4.531c30.925 13.133 38.912 20.736 38.912 40.858 0 21.376-13.056 31.872-28.877 31.872-12.288 0-26.906-11.981-28.672-28.518l-0.205-3.354c0-14.138-11.462-25.6-25.6-25.6s-25.6 11.462-25.6 25.6v0c0 48.256 40.192 83.072 80.077 83.072zM384.614 806.4c13.082-0.002 23.871-9.815 25.409-22.482l0.012-0.123 0.179-2.995v-137.805c-0.016-14.126-11.471-25.572-25.6-25.572-13.073 0-23.857 9.799-25.408 22.453l-0.012 0.124-0.179 2.995v137.805c0 14.138 11.462 25.6 25.6 25.6v0zM614.477 806.4c13.082-0.002 23.871-9.815 25.409-22.482l0.012-0.123 0.179-2.995v-137.805c0.001-0.060 0.001-0.131 0.001-0.202 0-14.138-11.462-25.6-25.6-25.6-13.155 0-23.992 9.922-25.436 22.69l-0.011 0.117-0.154 2.995v137.805c0 14.138 11.462 25.6 25.6 25.6v0z" />
<glyph unicode="&#xe918;" glyph-name="icon-chevron" d="M725.333 490.667l-42.667 42.667-170.667-170.667-170.667 170.667-42.667-42.667 213.333-213.333z" />
<glyph unicode="&#xe919;" glyph-name="icon-child-plan" d="M506.752 124.595c-4.669 0.037-9.034 1.306-12.795 3.497l0.123-0.066 2.611-1.306c-0.854 0.36-1.528 0.686-2.183 1.040l0.135-0.067-0.563 0.333-250.88 144.845c-7.706 4.509-12.8 12.744-12.8 22.17v0 289.715c0.005 4.713 1.278 9.127 3.496 12.922l-0.066-0.122 0.461 0.768 0.896 1.331-1.357-2.099c1.233 2.108 2.659 3.924 4.296 5.525l0.517 0.517c1.33 1.255 2.825 2.359 4.443 3.269l0.114 0.059-1.971-1.254c0.33 0.237 0.747 0.516 1.173 0.782l0.107 0.062 0.691 0.41 250.88 144.845c3.672 2.156 8.087 3.43 12.8 3.43s9.128-1.274 12.921-3.495l-0.121 0.065 250.906-144.845c3.796-2.22 6.887-5.262 9.101-8.898l0.064-0.113 0.205-0.358 0.179-0.333c0.358-0.64 0.691-1.28 0.998-1.946l-1.178 2.278c2.148-3.674 3.42-8.087 3.43-12.797v-0.003l-0.051 1.536 0.051-1.024v-290.227c0-9.425-5.094-17.661-12.679-22.104l-0.121-0.065-250.906-144.845c-0.731-0.436-1.614-0.89-2.524-1.292l-0.164-0.065-0.666-0.256c-0.579-0.251-1.327-0.521-2.091-0.752l-0.161-0.042-0.87-0.256c-0.699-0.189-1.583-0.368-2.484-0.497l-0.127-0.015-0.486-0.051c-0.968-0.13-2.087-0.205-3.224-0.205-0.001 0-0.001 0-0.002 0h-0.128zM281.6 540.416v-230.579l199.68-115.302 0.077 230.605-199.757 115.277zM732.186 540.416l-199.629-115.302-0.077-230.554 199.706 115.277v230.579zM506.88 700.058l-199.68-115.277 199.782-115.302 199.603 115.277-199.706 115.302z" />
<glyph unicode="&#xe91a;" glyph-name="icon-circle" d="M512 944c-274 0-496-222-496-496s222-496 496-496 496 222 496 496-222 496-496 496zM944 448c0-237.4-192.2-432-432-432-237.4 0-432 192.2-432 432 0 237.4 192.2 432 432 432 237.4 0 432-192.2 432-432z" />
<glyph unicode="&#xe91b;" glyph-name="icon-close" d="M780.8 716.373c-7.693 7.709-18.33 12.478-30.080 12.478s-22.387-4.769-30.079-12.477l-0.001-0.001-208.64-208.213-208.64 208.64c-7.698 7.698-18.333 12.46-30.080 12.46-23.494 0-42.54-19.046-42.54-42.54 0-11.747 4.761-22.382 12.46-30.080l208.64-208.64-208.64-208.64c-7.698-7.698-12.46-18.333-12.46-30.080 0-23.494 19.046-42.54 42.54-42.54 11.747 0 22.382 4.761 30.080 12.46l208.64 208.64 208.64-208.64c7.698-7.698 18.333-12.46 30.080-12.46 23.494 0 42.54 19.046 42.54 42.54 0 11.747-4.761 22.382-12.46 30.080l-208.64 208.64 208.64 208.64c16.213 16.213 16.213 43.52 0 59.733z" />
<glyph unicode="&#xe91c;" glyph-name="icon-cloud-apps" d="M570.457 859.727l3.249-1.772 285.44-163.289c27.244-15.698 45.597-44.156 46.892-76.997l0.006-0.177 0.069-3.436 0.010-111.734c0.020-0.433 0.020-0.866 0-1.31l-0.010-213.484c-0.045-33.153-17.447-62.232-43.605-78.641l-0.388-0.227-2.964-1.772-285.45-163.269c-13.456-7.812-29.609-12.423-46.84-12.423-15.928 0-30.936 3.94-44.102 10.899l0.514-0.248-3.249 1.772-234.811 134.302h-78.897c-77.706 0-140.721 62.986-140.721 140.702 0 71.286 53.13 130.334 122.23 139.392l2.009 0.256 0.945 3.663c20.135 74.742 87.404 128.788 166.42 130.629l4.165 0.049c3.505 0 7.030-0.128 10.614-0.384l3.387-0.295 0.187 0.492c32.788 86.577 115.367 146.087 209.841 148.017l4.726 0.049c77.716 0 148.805-38.981 191.045-102.498 1.664-2.484 2.656-5.541 2.656-8.829 0-8.837-7.163-16-16-16-5.521 0-10.388 2.796-13.264 7.049l-0.036 0.057c-36.382 54.695-97.516 88.222-164.391 88.222-88.103-0.003-162.732-57.69-188.178-137.353l-0.386-1.399c-2.091-6.576-8.143-11.256-15.288-11.256-0.867 0-1.717 0.069-2.546 0.201l0.091-0.012c-6.706 1.167-14.469 1.87-22.383 1.939h-0.067c-70.735 0-130.708-51.121-142.592-120.143-1.313-7.456-7.646-13.079-15.329-13.282h-0.021c-58.831-1.536-105.836-49.625-105.836-108.554 0-58.959 46.927-106.949 105.452-108.672l3.269-0.049h583.335c39.877 0 77.657 13.332 108.278 37.415l2.816 2.274c7.705 9.533 12.604 21.617 13.286 34.816l0.006 0.148 0.069 2.964v208.719c-31.383 39.102-79.173 63.921-132.76 63.921-0.068 0-0.136 0-0.204 0h0.011c-0.029 0-0.064 0-0.099 0-60.972 0-114.451-32.081-144.478-80.284l-0.418-0.72c-2.882-4.506-7.859-7.45-13.524-7.45-8.837 0-16 7.163-16 16 0 3.046 0.851 5.894 2.329 8.318l-0.040-0.071c36.173 58.1 99.695 96.197 172.115 96.197 0.040 0 0.080 0 0.12 0h-0.006c49.861 0 96.729-18.176 132.953-49.822v71.719c-0.036 21.48-11.205 40.344-28.045 51.133l-0.243 0.146-2.56 1.546-285.46 163.298c-8.885 5.169-19.555 8.22-30.937 8.22-10.226 0-19.878-2.463-28.393-6.828l0.351 0.164-2.905-1.566-285.479-163.289c-17.66-10.171-29.624-28.503-30.743-49.71l-0.006-0.151-0.069-2.954v-48.276c0-0.015 0-0.032 0-0.050 0-8.837-7.163-16-16-16-8.278 0-15.088 6.287-15.916 14.347l-0.006 0.068-0.079 1.634v48.266c0.035 33.142 17.432 62.214 43.585 78.611l0.388 0.227 2.964 1.772 285.46 163.269c13.452 7.83 29.606 12.452 46.84 12.452 15.934 0 30.946-3.951 44.108-10.927l-0.512 0.247zM744.054 177.92h-434.393l186.25-106.535c8.892-5.16 19.566-8.206 30.951-8.206 10.227 0 19.88 2.457 28.401 6.814l-0.353-0.164 2.905 1.556 186.24 106.535z" />
<glyph unicode="&#xe91d;" glyph-name="icon-cloud-filled" d="M785.792 149.333h-508.459c-129.067 0-234.667 107.989-234.667 240 0 123.989 89.941 224 211.2 240 46.933 96 144.725 160 258.133 160 144.725 0 262.059-104.021 289.408-240 97.792-8.021 179.925-96 179.925-200.021 0-111.957-86.059-199.979-195.541-199.979zM706.517 570.411c-0.512-0.427-1.024-0.811-1.536-1.237l2.261-0.512c-0.128 0.299-0.256 0.597-0.384 0.939l-0.341 0.811z" />
<glyph unicode="&#xe91e;" glyph-name="icon-cloud" d="M576.256 704c21.76 0 43.162-3.251 63.488-9.6 19.61-6.067 41.037-16 63.283-32.486 9.395-6.912 17.382-13.952 24.678-21.222 10.035-9.984 10.086-26.189 0.102-36.198-9.984-10.035-26.189-10.086-36.198-0.102-5.658 5.632-11.827 11.034-19.021 16.384-17.101 12.621-33.459 20.224-48.026 24.73-15.462 4.813-31.693 7.296-48.307 7.296-67.251 0-126.515-41.216-150.886-101.939l-2.099-5.504c-0.717-13.184-10.624-25.779-26.65-24.781l-3.072 0.358c-6.221 1.024-12.544 1.536-18.944 1.536-56.704 0-104.806-41.011-114.33-96.358-2.074-12.032-12.365-20.915-24.576-21.248-45.645-1.203-82.099-38.502-82.099-84.198 0-44.979 35.2-81.715 79.565-84.198l4.787-0.128h506.957c79.027 0 143.078 64.051 143.078 143.053 0 79.027-64.051 143.078-143.078 143.078-48.128 0-92.16-23.936-118.63-63.104-7.936-11.699-23.834-14.797-35.558-6.886-11.699 7.936-14.797 23.834-6.886 35.558 35.891 53.12 95.744 85.632 161.075 85.632 107.29 0 194.278-86.989 194.278-194.278 0-105.19-83.61-190.822-187.981-194.15l-6.298-0.102h-506.957c-74.854 0-135.552 60.672-135.552 135.526 0 65.946 47.206 121.011 109.901 133.018l1.997 0.333 1.434 4.659c21.504 65.485 81.92 112.256 152.602 114.867l6.272 0.128 4.762-0.102c32.051 75.827 105.702 127.565 189.85 130.304l7.040 0.128z" />
<glyph unicode="&#xe91f;" glyph-name="icon-collaborators" d="M933.845 746.667c26.227 0 47.488-22.286 47.488-49.778v-497.778c0-27.492-21.261-49.778-47.488-49.778h-672.207c-15.249 0-29.57 7.676-38.497 20.633l-171.484 248.889c-11.987 17.398-11.987 40.891 0 58.289l171.484 248.889c8.928 12.958 23.249 20.633 38.497 20.633h672.207zM896 661.333h-603.962l-154.074-213.333 154.074-213.333h603.962v426.667zM717.333 405.333c39.803 0 73.786-17.717 87.205-42.667v-42.667h-286.41v42.667c13.419 24.949 47.402 42.667 87.205 42.667h112zM341.333 490.667c23.564 0 42.667-19.103 42.667-42.667s-19.103-42.667-42.667-42.667c-23.564 0-42.667 19.103-42.667 42.667s19.103 42.667 42.667 42.667zM661.333 576c35.346 0 64-28.654 64-64s-28.654-64-64-64c-35.346 0-64 28.654-64 64s28.654 64 64 64z" />
<glyph unicode="&#xe920;" glyph-name="icon-connections" d="M213.333 277.333v-128h128v-85.333h-170.667c-23.564 0-42.667 19.103-42.667 42.667v170.667h85.333zM896 277.333v-170.667c0-23.564-19.103-42.667-42.667-42.667v0h-170.667v85.333h128v128h85.333zM512 704c94.606 0 170.667-80.834 170.667-183.226 0-31.879-8.96-67.247-25.265-105.863-13.264-31.416-31.135-64.334-52.484-98.043-16.456-25.983-34.039-50.97-51.625-74.108-6.16-8.106-11.889-15.412-17.045-21.808-3.131-3.885-5.403-6.635-6.673-8.139l-17.575-20.812-17.575 20.812c-1.27 1.504-3.542 4.254-6.673 8.139-5.156 6.397-10.885 13.703-17.045 21.808-17.585 23.139-35.169 48.126-51.625 74.108-21.349 33.709-39.219 66.628-52.484 98.043-16.305 38.616-25.265 73.984-25.265 105.863 0 102.393 76.061 183.226 170.667 183.226zM512 618.667c-46.401 0-85.333-41.668-85.333-97.893 0-18.397 5.888-42.695 18.545-72.671 10.96-25.958 26.372-54.646 45.962-85.578 6.635-10.477 13.597-20.973 20.827-31.422 7.23 10.448 14.192 20.945 20.827 31.422 19.59 30.932 35.002 59.619 45.962 85.578 12.656 29.975 18.545 54.274 18.545 72.671 0 56.225-38.933 97.893-85.333 97.893zM341.333 832v-85.333h-128v-128h-85.333v170.667c0 23.564 19.103 42.667 42.667 42.667h170.667zM853.333 832c23.564 0 42.667-19.103 42.667-42.667v0-170.667h-85.333v128h-128v85.333z" />
<glyph unicode="&#xe921;" glyph-name="icon-connectivity" d="M512 490.667c-46.933 0-85.333-38.4-85.333-85.333s38.4-85.333 85.333-85.333c46.933 0 85.333 38.4 85.333 85.333s-38.4 85.333-85.333 85.333v0zM768 405.333c0 140.8-115.2 256-256 256s-256-115.2-256-256c0-93.867 51.2-174.933 128-221.867l42.667 72.533c-51.2 29.867-85.333 85.333-85.333 145.067 0 93.867 76.8 170.667 170.667 170.667s170.667-76.8 170.667-170.667c0-64-34.133-119.467-85.333-145.067l42.667-72.533c76.8 46.933 128 128 128 221.867v0zM512 832c-234.667 0-426.667-192-426.667-426.667 0-157.867 85.333-294.4 213.333-366.933l42.667 72.533c-102.4 59.733-170.667 170.667-170.667 294.4 0 187.733 153.6 341.333 341.333 341.333s341.333-153.6 341.333-341.333c0-128-68.267-234.667-170.667-294.4l42.667-72.533c128 72.533 213.333 213.333 213.333 366.933 0 234.667-192 426.667-426.667 426.667v0z" />
<glyph unicode="&#xe922;" glyph-name="icon-copy" d="M682.667 917.333h-512c-46.933 0-85.333-38.4-85.333-85.333v-597.333h85.333v597.333h512v85.333zM810.667 746.667h-469.333c-46.933 0-85.333-38.4-85.333-85.333v-597.333c0-46.933 38.4-85.333 85.333-85.333h469.333c46.933 0 85.333 38.4 85.333 85.333v597.333c0 46.933-38.4 85.333-85.333 85.333zM810.667 64h-469.333v597.333h469.333v-597.333z" />
<glyph unicode="&#xe923;" glyph-name="icon-coro-annual-copy" d="M470.31 860.582c13.362 7.779 29.409 12.371 46.528 12.371s33.166-4.592 46.976-12.611l-0.448 0.24 285.427-163.277c11.692-6.741 21.444-15.538 29.064-25.989l0.184-0.264c3.277-2.338 5.579-5.861 6.284-9.93l0.013-0.092c6.994-12.644 11.11-27.722 11.11-43.761 0-0.005 0-0.010 0-0.016v0.001-326.528c-0.051-34.13-18.621-63.912-46.198-79.84l-0.445-0.237-285.44-163.29c-13.363-7.765-29.407-12.348-46.522-12.348s-33.158 4.583-46.972 12.589l0.45-0.241-285.491 163.29c-27.994 16.184-46.541 45.959-46.592 80.069v326.535c0 15.578 3.942 30.592 11.136 43.84 0.731 4.057 2.974 7.49 6.112 9.761l0.045 0.031c7.801 10.792 17.579 19.647 28.868 26.182l0.444 0.237zM861.658 636.39l-329.536-190.246v-378.522c4.531 1.126 8.96 2.765 13.197 4.902l2.79 1.51 285.44 163.277c18.718 10.768 31.13 30.636 31.181 53.407v326.535c0 6.605-1.062 13.056-3.072 19.136zM172.006 636.314c-1.932-5.684-3.046-12.231-3.046-19.039 0-0.007 0-0.014 0-0.021v0.001-326.528c0-22.016 11.853-42.368 31.142-53.414l285.478-163.277c4.553-2.656 9.819-4.84 15.385-6.279l0.435-0.096v378.483zM548.109 833.92c-8.979 5.225-19.761 8.308-31.264 8.308s-22.285-3.084-31.566-8.47l0.302 0.162-285.491-163.29c-4.346-2.505-8.104-5.293-11.507-8.458l0.038 0.035 328.141-189.453 328.243 189.491c-3.362 3.118-7.115 5.897-11.156 8.237l-0.3 0.16z" />
<glyph unicode="&#xe924;" glyph-name="icon-coro-flexible-copy" d="M512.666 830.758l1.613-0.819 181.632-104.858c0.854-0.493 1.59-1.014 2.275-1.593l-0.023 0.019 0.333-0.307c0.671-0.581 1.267-1.214 1.795-1.902l0.022-0.030 0.486-0.653c0.23-0.32 0.448-0.653 0.64-0.986l0.090-0.166 0.090-0.128c0.218-0.41 0.422-0.806 0.614-1.229l-0.704 1.357c0.477-0.806 0.91-1.741 1.247-2.72l0.033-0.109 0.179-0.589c0.237-0.714 0.413-1.549 0.496-2.411l0.004-0.047 0.090-1.126 0.013-0.678v-194.432l173.952-100.416c1.749-1.025 3.223-2.32 4.416-3.845l0.026-0.034 0.41-0.563c0.23-0.32 0.448-0.64 0.64-0.986l0.115-0.205 0.128-0.205c0.166-0.294 0.32-0.602 0.474-0.922l-0.602 1.126c0.476-0.799 0.908-1.725 1.247-2.695l0.033-0.109 0.192-0.64c0.071-0.224 0.151-0.534 0.217-0.848l0.013-0.074 0.141-0.73c0.154-0.845 0.218-1.702 0.218-2.586l-0.077 1.6 0.038-0.602 0.051-0.998v-209.702c-0.001-5.654-3.057-10.594-7.608-13.26l-0.072-0.039-181.632-104.87c-2.077-1.215-4.559-1.965-7.208-2.047l-0.024-0.001h-0.909c-0.282 0-0.563 0.026-0.845 0.051l1.293-0.051c-2.158 0.001-4.213 0.444-6.079 1.242l0.101-0.038-0.077 0.038-0.486 0.218c-0.427 0.199-0.754 0.37-1.074 0.552l0.076-0.040-0.128 0.077-173.952 100.442-173.939-100.442c-2.081-1.217-4.567-1.968-7.222-2.047l-0.023-0.001h-0.883c-0.294 0-0.576 0.026-0.858 0.051l1.306-0.051c-2.158 0.001-4.213 0.444-6.079 1.242l0.101-0.038-0.077 0.038-0.41 0.179c-0.454 0.21-0.806 0.393-1.15 0.59l0.075-0.040-0.141 0.077-181.632 104.87c-4.616 2.707-7.667 7.645-7.667 13.295 0 0.002 0 0.003 0 0.005v0 209.69c0.003 1.85 0.331 3.623 0.93 5.266l-0.034-0.107 0.128 0.384c0.319 0.831 0.663 1.535 1.060 2.203l-0.036-0.066 0.256 0.435 0.435 0.653-0.678-1.088c1.392 2.377 3.324 4.301 5.635 5.643l0.074 0.040 173.85 100.378v194.611c0 0.512 0.038 1.024 0.102 1.536l-0.102-1.715c0.002 1.203 0.142 2.373 0.405 3.496l-0.021-0.104 0.128 0.55c0.316 1.23 0.754 2.307 1.315 3.307l-0.035-0.068 0.269 0.499 0.294 0.474 0.333 0.525-0.627-0.998c1.072 1.831 2.44 3.367 4.057 4.593l0.039 0.028 0.192 0.141c0.461 0.333 0.934 0.64 1.408 0.909l181.542 104.806c2.206 1.297 4.858 2.064 7.69 2.064 2.189 0 4.271-0.458 6.156-1.283l-0.099 0.039zM521.971 377.037v-174.259l150.899-87.142 0.051 174.285-150.95 87.117zM158.707 377.050l0.013-174.259 150.912-87.142 0.051 174.259-150.976 87.142zM491.238 377.024l-150.835-87.104-0.051-174.259 150.886 87.117v174.246zM854.477 377.024l-150.835-87.117-0.051-174.246 150.899 87.13-0.013 174.234zM324.979 490.765l-150.925-87.13 150.976-87.13 150.861 87.13-150.912 87.13zM688.218 490.765l-150.899-87.13 150.963-87.13 150.835 87.13-150.899 87.13zM340.339 685.184v-167.834l150.912-87.13 0.051 167.834-150.963 87.13zM672.858 685.171l-150.835-87.117-0.051-167.821 150.899 87.13-0.013 167.808zM506.598 798.912l-150.886-87.117 150.963-87.13 150.822 87.117-150.899 87.13z" />
<glyph unicode="&#xe925;" glyph-name="icon-coro-free" d="M460.083 858.035c13.362 7.771 29.406 12.358 46.522 12.358s33.16-4.587 46.971-12.598l-0.449 0.241 285.427-163.277c28.035-16.142 46.615-45.922 46.656-80.045v-326.534c-0.046-34.135-18.617-63.923-46.198-79.852l-0.445-0.237-285.44-163.277c-13.363-7.765-29.407-12.348-46.522-12.348s-33.158 4.583-46.972 12.589l0.45-0.241-285.491 163.29c-27.994 16.184-46.541 45.959-46.592 80.069v326.535c0.038 34.117 18.596 63.891 46.16 79.814l0.445 0.237zM537.869 831.386c-8.98 5.22-19.762 8.301-31.264 8.301s-22.284-3.081-31.566-8.463l0.302 0.162-285.491-163.315c-18.694-10.766-31.087-30.619-31.13-53.37v-326.534c0-22.016 11.853-42.368 31.142-53.414l285.478-163.277c8.982-5.214 19.763-8.291 31.264-8.291s22.283 3.077 31.567 8.453l-0.303-0.162 285.44 163.277c18.718 10.768 31.13 30.636 31.181 53.407v326.535c0 22.016-11.853 42.355-31.181 53.376zM682.189 553.203c2.477-2.717 3.994-6.347 3.994-10.331 0-3.91-1.461-7.479-3.867-10.19l0.014 0.016-1.178-1.19-234.829-213.299c-2.717-2.475-6.346-3.991-10.328-3.991-4.601 0-8.73 2.023-11.545 5.228l-0.015 0.017-1.050 1.344-82.035 117.926c-1.738 2.455-2.778 5.512-2.778 8.811 0 8.483 6.877 15.36 15.36 15.36 4.628 0 8.778-2.047 11.594-5.285l0.016-0.019 1.024-1.318 72.051-103.565 221.875 201.536c2.716 2.472 6.343 3.986 10.323 3.986 4.502 0 8.552-1.937 11.362-5.023l0.011-0.012z" />
<glyph unicode="&#xe926;" glyph-name="icon-coro-upgrade" d="M460.070 858.022c13.362 7.779 29.409 12.371 46.528 12.371s33.166-4.592 46.976-12.611l-0.448 0.24 285.427-163.277c11.692-6.741 21.444-15.538 29.064-25.989l0.184-0.264c3.277-2.338 5.579-5.861 6.284-9.93l0.013-0.092c6.994-12.644 11.11-27.722 11.11-43.761 0-0.005 0-0.010 0-0.016v0.001-326.528c-0.051-34.13-18.621-63.912-46.198-79.84l-0.445-0.237-285.44-163.29c-13.363-7.765-29.407-12.348-46.522-12.348s-33.158 4.583-46.972 12.589l0.45-0.241-285.491 163.302c-27.991 16.182-46.536 45.951-46.592 80.056v326.536c0 15.578 3.942 30.592 11.136 43.84 0.731 4.057 2.974 7.49 6.112 9.761l0.045 0.031c7.801 10.792 17.579 19.647 28.868 26.182l0.444 0.237zM851.418 633.83l-142.31-82.163c1.187-4.265 1.869-9.163 1.869-14.221 0-0.009 0-0.018 0-0.027v0.001-169.933c0-19.84-10.675-38.17-27.981-48.064l-148.531-84.966c-3.608-2.105-7.78-3.902-12.174-5.175l-0.396-0.098v-164.147c6.058 1.538 11.376 3.741 16.275 6.587l-0.3-0.161 285.44 163.277c18.718 10.768 31.13 30.636 31.181 53.407v326.535c0 6.605-1.062 13.056-3.072 19.136zM161.766 633.754c-1.932-5.684-3.046-12.231-3.046-19.039 0-0.007 0-0.014 0-0.021v0.001-326.528c0-22.016 11.853-42.368 31.142-53.414l285.478-163.277c4.553-2.66 9.819-4.848 15.385-6.291l0.436-0.096v164.16c-4.734 1.372-8.853 3.155-12.684 5.379l0.268-0.144-148.557 84.966c-16.806 9.712-27.94 27.584-27.968 48.060v169.911c0 4.851 0.64 9.6 1.856 14.182zM680.256 535.027l-158.336-91.418v-180.902l145.818 83.392c7.168 4.096 11.776 11.366 12.442 19.379l0.077 2.022v167.526zM332.941 534.938v-167.437c0-8.806 4.762-16.96 12.506-21.402l145.715-83.341v180.826l-158.221 91.354zM519.206 643.763c-3.621 2.105-7.97 3.347-12.608 3.347s-8.986-1.242-12.73-3.412l0.122 0.065-144.23-82.496 156.8-90.534 156.826 90.547zM537.869 831.373c-8.979 5.225-19.761 8.308-31.264 8.308s-22.285-3.084-31.566-8.47l0.302 0.162-285.491-163.302c-4.346-2.505-8.104-5.293-11.507-8.458l0.038 0.035 141.542-81.728c3.085 2.867 6.528 5.402 10.266 7.552l148.544 84.954c8.003 4.657 17.613 7.406 27.866 7.406s19.863-2.749 28.134-7.55l-0.269 0.144 148.518-84.954c3.738-2.138 7.168-4.659 10.24-7.501l141.542 81.715c-3.362 3.118-7.115 5.897-11.156 8.237l-0.3 0.16z" />
<glyph unicode="&#xe927;" glyph-name="icon-dashboard" d="M213.333 832v-682.624l682.667-0.043v-85.333h-725.333c-16.744 0-42.667 17.648-42.667 42.667v725.333h85.333zM384 448v-213.333h-85.333v213.333h85.333zM554.667 576v-341.333h-85.333v341.333h85.333zM725.333 704v-469.333h-85.333v469.333h85.333zM896 832v-597.333h-85.333v597.333h85.333z" />
<glyph unicode="&#xe928;" glyph-name="icon-data-copy" d="M550.833 853.819l3.249-1.772 285.44-163.279c27.242-15.703 45.595-44.157 46.901-76.995l0.006-0.179 0.059-3.436v-326.538c-0.048-33.149-17.45-62.224-43.605-78.631l-0.388-0.227-2.954-1.772-285.46-163.269c-13.453-7.82-29.607-12.435-46.838-12.435-15.93 0-30.939 3.945-44.102 10.911l0.513-0.248-3.249 1.772-186.329 106.565c-2.32 1.343-4.218 3.172-5.603 5.359l-0.039 0.066-0.246 0.443c-0.349 0.568-0.683 1.229-0.962 1.918l-0.033 0.091-0.138 0.384c-0.655 1.663-1.035 3.589-1.035 5.604 0 0.055 0 0.11 0.001 0.164v-0.008 496.187c0 8.271 6.302 15.094 14.375 15.911l1.634 0.089 254.454-0.010c0.236 0 0.492-0.010 0.729-0.030l-1.014 0.039c0.571 0 1.142-0.039 1.694-0.098l0.738-0.098c0.258-0.028 0.479-0.062 0.697-0.107l-0.048 0.008 0.61-0.138c0.266-0.059 0.542-0.138 0.807-0.217l0.62-0.197 0.571-0.197 0.679-0.286c0.295-0.118 0.581-0.256 0.857-0.394l0.364-0.197c1.339-0.719 2.56-1.625 3.643-2.688l0.069-0.089 196.126-196.106c0.394-0.394 0.778-0.807 1.132-1.231l-0.985 1.063c0.463-0.453 0.886-0.935 1.28-1.438l0.591-0.788 0.236-0.364c0.217-0.325 0.414-0.66 0.61-1.004l0.098-0.197c0.433-0.788 0.788-1.634 1.083-2.501l0.089-0.325c0.118-0.354 0.217-0.729 0.295-1.103l0.079-0.354c0.108-0.522 0.197-1.054 0.246-1.595l0.089-1.644v-224.551c-0.076-8.784-7.214-15.876-16.009-15.876-8.219 0-14.992 6.194-15.905 14.168l-0.007 0.074-0.079 1.634-0.010 208.561h-180.273c-0.001 0-0.003 0-0.005 0-8.255 0-15.050 6.256-15.9 14.286l-0.006 0.070-0.089 1.644v116.697c0.076 8.784 7.214 15.876 16.009 15.876 8.219 0 14.992-6.194 15.905-14.168l0.007-0.074 0.079-1.634v-100.706h141.647l-164.273 164.283h-231.542v-471.030l178.274-101.967c8.891-5.166 19.566-8.215 30.954-8.215 10.222 0 19.871 2.457 28.387 6.813l-0.353-0.164 2.905 1.566 285.45 163.269c17.673 10.181 29.647 28.526 30.773 49.749l0.006 0.152 0.069 2.954v326.538c-0.040 21.48-11.203 40.344-28.036 51.143l-2.803 1.682-285.47 163.289c-8.885 5.169-19.555 8.22-30.937 8.22-10.226 0-19.878-2.463-28.393-6.828l0.351 0.164-2.905-1.566-285.479-163.279c-17.664-10.169-29.631-28.501-30.753-49.71l-0.006-0.151-0.069-2.954v-326.548c0.046-21.479 11.203-40.343 28.026-51.153l2.802-1.692 37.711-21.573c4.987-2.772 8.306-8.010 8.306-14.023 0-8.831-7.159-15.99-15.99-15.99-2.412 0-4.699 0.534-6.75 1.49l0.098-0.041-1.556 0.788-37.711 21.563c-27.211 15.74-45.537 44.192-46.852 77.023l-0.006 0.18-0.069 3.436v326.518c0.039 33.144 17.44 62.214 43.595 78.611l0.388 0.227 2.954 1.772 285.47 163.279c13.452 7.83 29.606 12.452 46.84 12.452 15.934 0 30.946-3.951 44.108-10.927l-0.512 0.247zM625.241 219.166c8.784-0.076 15.876-7.214 15.876-16.009 0-8.219-6.194-14.992-14.168-15.905l-0.074-0.007-1.634-0.079h-235.983c-8.817 0.026-15.953 7.18-15.953 16 0 8.244 6.236 15.032 14.248 15.905l0.071 0.006 1.634 0.089h235.983zM625.241 281.049c8.784-0.076 15.876-7.214 15.876-16.009 0-8.219-6.194-14.992-14.168-15.905l-0.074-0.007-1.634-0.079h-235.983c-0.015 0-0.032 0-0.050 0-8.837 0-16 7.163-16 16 0 8.278 6.287 15.088 14.347 15.916l0.068 0.006 1.634 0.079h235.983zM469.218 381.332c0.048 0.001 0.104 0.001 0.16 0.001 8.831 0 15.99-7.159 15.99-15.99 0-8.312-6.342-15.143-14.451-15.917l-0.065-0.005-1.634-0.089h-79.951c-8.788 0.070-15.886 7.211-15.886 16.009 0 8.219 6.193 14.991 14.167 15.905l0.074 0.007 1.634 0.079h79.961z" />
<glyph unicode="&#xe929;" glyph-name="icon-data-leakage-settings" d="M517.088 942.848l-363.040-145.2c-6.048-2.448-10.048-8.32-10.048-14.864v-456.592c0-61.952 44.528-129.968 114.992-195.952l9.76-8.976c8.288-7.472 16.88-14.928 25.76-22.32l10.816-8.864 11.088-8.816 5.648-4.384 11.472-8.736 5.84-4.352 11.84-8.64c5.984-4.32 12.048-8.608 18.208-12.864l12.4-8.48 6.288-4.224 12.704-8.368 12.912-8.288 13.088-8.192 6.592-4.064 13.344-8.064 13.488-7.968 13.632-7.84 13.76-7.76 13.888-7.648 14-7.52c4.688-2.496 10.32-2.496 15.008 0l13.968 7.504 13.856 7.632 13.728 7.728 13.6 7.84 13.472 7.968 6.672 4 13.232 8.112 6.56 4.080 12.976 8.24 12.8 8.32 6.336 4.208 12.496 8.448 12.288 8.512 6.080 4.288 11.952 8.64 5.888 4.32 11.6 8.72c1.92 1.456 3.824 2.912 5.712 4.384l11.216 8.8c3.696 2.928 7.36 5.888 10.96 8.848l10.672 8.88 10.4 8.928 10.080 8.96c76.16 68.864 124.976 140.336 124.976 204.96v456.592c0 6.56-3.984 12.432-10.048 14.864l-363.040 145.2c-3.808 1.536-8.064 1.536-11.872 0zM523.024 910.768l347.040-138.816v-445.76l-0.080-3.76c-1.792-46.96-36.736-101.2-92-155.728l-9.392-9.088-9.76-9.088c-6.624-6.064-13.472-12.112-20.544-18.144l-10.768-9.040-5.504-4.512-11.232-8.992c-1.888-1.504-3.792-2.992-5.712-4.48l-11.664-8.928c-3.936-2.976-7.904-5.936-11.92-8.88l-12.192-8.832-12.432-8.752-12.64-8.672-12.896-8.608c-2.16-1.424-4.32-2.848-6.512-4.256l-13.168-8.48-13.36-8.352-13.536-8.272-13.696-8.16-13.84-8.016-13.952-7.904-7.040-3.904-13.2-7.184-6.192 3.328-13.92 7.68c-2.32 1.296-4.64 2.592-6.928 3.904l-13.76 7.872-6.816 3.984-13.536 8.048-13.392 8.16c-2.224 1.36-4.432 2.72-6.624 4.096l-13.12 8.32c-4.352 2.768-8.672 5.568-12.96 8.384l-12.736 8.48-12.528 8.544-12.288 8.64c-6.096 4.32-12.096 8.672-18 13.056l-11.68 8.768-5.76 4.4-11.264 8.848c-9.28 7.376-18.24 14.8-26.896 22.24l-10.208 8.944c-72.016 64.128-118.416 129.28-118.416 184.32v445.808l347.024 138.8zM515.232 598.576c-16.432-24.16-44.72-67.248-69.6-112.512-4.448-8.128-14.688-11.104-22.832-6.656s-11.136 14.656-6.672 22.768c38.768 70.544 85.6 135.92 85.6 135.92 3.2 4.48 8.4 7.104 13.92 7.040 5.504-0.096 10.624-2.864 13.712-7.408 0 0 34.080-50.448 35.28-52.304 24.32-37.6 55.84-89.68 77.168-137.072 15.152-33.664 25.024-65.248 25.024-88.464 0-70.304-48.304-129.44-113.584-146.24-8.992-2.304-18.16 3.104-20.48 12.064s3.104 18.128 12.096 20.432c50.768 13.056 88.32 59.072 88.32 113.76 0 19.664-9.232 46.176-22.080 74.688-20.64 45.872-51.2 96.24-74.736 132.64-0.672 1.040-11.664 17.328-21.136 31.36zM414.544 277.536c11.232 0 20.368-9.104 20.368-20.32 0-11.2-9.12-20.288-20.368-20.288-11.232 0-20.368 9.088-20.368 20.304 0 11.2 9.12 20.304 20.368 20.304zM414.544 197.12c70.688 0 128 57.312 128 128 0 70.704-57.312 128-128 128s-128-57.296-128-128c0-70.688 57.312-128 128-128zM394.176 378.72v-60.56c0-11.2 9.12-20.304 20.368-20.304 11.232 0 20.368 9.12 20.368 20.32v60.544c0 11.2-9.12 20.32-20.368 20.32-11.232 0-20.368-9.12-20.368-20.32z" />
<glyph unicode="&#xe92a;" glyph-name="icon-data-loss" d="M535.859 755.2c3.635 0 7.142-1.242 9.971-3.482l1.344-1.203 114.918-114.918c6.246-6.246 6.246-16.384 0-22.63-5.837-5.824-15.053-6.221-21.325-1.165l-1.306 1.165-110.221 110.234h-202.842v-543.859h105.203c8.282 0 15.104-6.298 15.923-14.362l0.077-1.638c0-8.282-6.298-15.104-14.362-15.923l-1.638-0.077h-121.203c-8.282 0-15.104 6.298-15.923 14.362l-0.077 1.638v575.859c0 8.282 6.298 15.104 14.362 15.923l1.638 0.077h225.459zM725.939 163.341c0-8.282-6.285-15.104-14.362-15.91l-2.112-0.090c-8.832 0-16 7.168-16 16 0 1.101 0.128 2.176 0.333 3.226l0.141 0.602v382.016h-157.645c-8.282 0-15.091 6.285-15.91 14.349l-0.090 1.638v87.014c0 8.832 7.168 16 16 16 8.294 0 15.104-6.298 15.923-14.362l0.077-1.638v-71.002h157.658c8.282 0 15.091-6.31 15.91-14.374l0.090-1.638v-401.83zM614.835 355.712c8.832 0 16-7.168 16-16 0-8.282-6.298-15.104-14.362-15.923l-1.638-0.077h-209.318c-8.832 0-16 7.168-16 16 0 8.282 6.298 15.104 14.362 15.923l1.638 0.077h209.318zM614.835 418.291c8.832 0 16-7.168 16-16 0-8.294-6.298-15.104-14.362-15.923l-1.638-0.077h-209.318c-8.832 0-16 7.168-16 16 0 8.282 6.298 15.104 14.362 15.91l1.638 0.090h209.318zM476.442 507.251c8.832 0 16-7.168 16-16 0-8.294-6.298-15.104-14.362-15.923l-1.638-0.090h-70.912c-8.845 0-16 7.168-16 16 0 8.282 6.285 15.104 14.349 15.923l1.638 0.077h70.925zM569.702 254.643c50.432 0 91.302-40.87 91.302-91.302s-40.883-91.302-91.302-91.302c-50.432 0-91.315 40.883-91.315 91.302 0 50.432 40.883 91.302 91.315 91.302zM569.702 114.765c-7.078 0-12.8-5.734-12.8-12.8v-2.022l0.077-1.498c0.742-6.362 6.144-11.302 12.723-11.302 7.066 0 12.8 5.734 12.8 12.8v2.022l-0.090 1.498c-0.742 6.362-6.144 11.302-12.71 11.302zM569.702 240.051c-7.078 0-12.8-5.734-12.8-12.8v-75.738l0.077-1.498c0.742-6.362 6.144-11.302 12.723-11.302 7.066 0 12.8 5.734 12.8 12.8v75.738l-0.090 1.498c-0.742 6.362-6.144 11.302-12.71 11.302z" />
<glyph unicode="&#xe92b;" glyph-name="icon-data" d="M550.835 834.125l3.251-1.779 285.44-163.277c28.058-16.026 45.709-45.21 46.899-77.171l0.064-3.43v-326.528c0-32.141-16.691-61.888-43.994-78.874l-2.957-1.766-285.453-163.277c-27.904-15.962-62.054-16.55-90.432-1.766l-3.251 1.766-186.65 106.778c-0.32 0.192-0.64 0.397-0.947 0.614l1.28-0.819c-0.666 0.384-1.28 0.794-1.869 1.242l-0.576 0.486c-0.256 0.205-0.512 0.435-0.768 0.666l-0.346 0.384c-0.282 0.256-0.538 0.55-0.768 0.845l-0.192 0.243c-0.282 0.32-0.512 0.64-0.768 0.998l-0.179 0.294c-0.218 0.32-0.422 0.666-0.614 1.024l-0.256 0.512c-0.154 0.256-0.282 0.55-0.41 0.832l-0.384 0.96-0.128 0.41-0.077 0.243-0.141 0.486c-0.41 1.421-0.602 2.893-0.589 4.378v496.192c0 8.294 6.31 15.104 14.374 15.923l1.638 0.077h254.17c0.768 0 1.536-0.051 2.278-0.154l0.32-0.051c0.435-0.064 0.858-0.154 1.28-0.256l0.346-0.102c0.41-0.102 0.806-0.23 1.19-0.371l0.371-0.141c0.384-0.141 0.755-0.307 1.114-0.486l0.422-0.205c0.333-0.166 0.653-0.358 0.973-0.55l0.422-0.256c0.512-0.346 0.998-0.691 1.459-1.075l1.126-1.024 196.275-196.275c0.384-0.397 0.768-0.806 1.114-1.242l-1.114 1.229c0.55-0.55 1.062-1.126 1.51-1.741 0.218-0.282 0.41-0.563 0.602-0.858l0.32-0.525c0.128-0.179 0.218-0.371 0.32-0.55l0.358-0.704 0.064-0.128c0.192-0.422 0.384-0.845 0.538-1.28l0.128-0.384c0.154-0.422 0.269-0.845 0.384-1.28l0.090-0.41c0.077-0.333 0.141-0.678 0.192-1.024l0.077-0.627 0.102-1.792v-224.563c0-8.832-7.168-16-16-16-8.282 0-15.104 6.298-15.91 14.362l-0.090 1.638v208.563h-180.275c-8.282 0-15.104 6.298-15.91 14.362l-0.090 1.638v116.71c0 8.832 7.168 16 16 16 8.294 0 15.104-6.298 15.923-14.374l0.077-1.626v-100.71h141.645l-164.275 164.275h-231.539v-471.027l178.266-101.978c18.189-10.394 40.422-10.918 59.008-1.562l2.893 1.562 285.44 163.277c18.253 10.445 29.773 29.261 30.784 49.894l0.077 2.957v326.541c0 20.787-10.688 40.064-28.288 51.277l-2.56 1.549-285.466 163.29c-18.163 10.406-40.384 10.931-58.97 1.549l-2.906-1.562-285.478-163.277c-18.214-10.419-29.734-29.235-30.746-49.869l-0.077-2.944v-326.554c0-20.787 10.688-40.064 28.275-51.302l2.56-1.536 37.709-21.581c7.667-4.39 10.33-14.157 5.939-21.824-4.096-7.168-12.877-9.958-20.275-6.733l-1.562 0.781-37.709 21.581c-28.032 16.051-45.696 45.235-46.874 77.184l-0.064 3.43v326.541c0 32.128 16.691 61.875 43.981 78.848l2.957 1.754 285.478 163.277c27.904 16 62.080 16.589 90.432 1.779zM625.242 199.462c8.832 0 16-7.168 16-16 0-8.282-6.298-15.104-14.362-15.91l-1.638-0.090h-235.994c-8.832 0-16 7.168-16 16 0 8.294 6.298 15.104 14.362 15.923l1.638 0.077h235.981zM625.242 261.35c8.832 0 16-7.168 16-16 0-8.282-6.298-15.104-14.362-15.91l-1.638-0.090h-235.994c-8.832 0-16 7.168-16 16 0 8.294 6.298 15.104 14.362 15.923l1.638 0.077h235.981zM469.21 361.638c8.845 0 16-7.168 16-16 0-8.282-6.285-15.104-14.349-15.91l-1.638-0.090h-79.974c-8.832 0-16 7.168-16 16 0 8.282 6.298 15.104 14.362 15.923l1.638 0.077h79.962z" />
<glyph unicode="&#xe92c;" glyph-name="icon-desltop" d="M853.333 192c46.933 0 84.907 38.4 84.907 85.333l0.427 426.667c0 46.933-38.4 85.333-85.333 85.333h-682.667c-46.933 0-85.333-38.4-85.333-85.333v-426.667c0-46.933 38.4-85.333 85.333-85.333h-170.667v-85.333h1024v85.333h-170.667zM170.667 704h682.667v-426.667h-682.667v426.667z" />
<glyph unicode="&#xe92d;" glyph-name="icon-development-mode" d="M906.573 196.864c14.126-0.016 25.572-11.471 25.572-25.6 0-13.073-9.799-23.857-22.453-25.408l-0.124-0.012-2.995-0.179h-804.173c-14.126 0.016-25.572 11.471-25.572 25.6 0 13.073 9.799 23.857 22.453 25.408l0.124 0.012 2.995 0.179h804.173zM816.077 755.2c33.333-0.131 60.552-26.128 62.634-58.953l0.009-0.183 0.128-4.173v-384.486c0-0.071 0-0.154 0-0.238 0-33.28-25.752-60.546-58.417-62.956l-0.208-0.012-4.147-0.128h-623.36c-33.35 0.133-60.579 26.157-62.634 59.006l-0.009 0.181-0.128 4.147v251.93c0.016 14.126 11.471 25.572 25.6 25.572 13.073 0 23.857-9.799 25.408-22.453l0.012-0.124 0.179-2.995v-251.93c0-6.042 4.147-10.931 9.498-11.93l2.048-0.205h623.36c5.753 0.121 10.484 4.349 11.383 9.865l0.009 0.068 0.205 2.202v384.486c0.001 0.053 0.001 0.115 0.001 0.178 0 5.747-4.046 10.549-9.446 11.712l-0.079 0.014-2.048 0.205h-623.36c-5.754-0.097-10.492-4.324-11.383-9.84l-0.009-0.067-0.179-2.202v-42.47c-0.016-14.126-11.471-25.572-25.6-25.572-13.073 0-23.857 9.799-25.408 22.453l-0.012 0.124-0.179 2.995v42.47c0 0.077-0.001 0.168-0.001 0.26 0 33.27 25.757 60.524 58.419 62.909l0.206 0.012 4.147 0.128h623.36zM450.432 623.437c4.641-4.634 7.512-11.039 7.512-18.115 0-5.932-2.018-11.393-5.404-15.733l0.043 0.057-2.15-2.406-85.478-85.478 89.702-89.702c4.641-4.634 7.512-11.039 7.512-18.115 0-5.932-2.018-11.393-5.404-15.733l0.043 0.057-2.15-2.406c-4.633-4.632-11.032-7.497-18.101-7.497-5.938 0-11.405 2.022-15.747 5.415l0.057-0.043-2.406 2.125-107.776 107.776c-4.641 4.634-7.512 11.039-7.512 18.115 0 5.932 2.018 11.393 5.404 15.733l-0.043-0.057 2.125 2.432 103.578 103.578c4.632 4.631 11.031 7.495 18.099 7.495s13.467-2.864 18.099-7.495v0zM588.109 625.562l2.406-2.125 107.802-107.776c4.632-4.633 7.497-11.032 7.497-18.101 0-5.938-2.022-11.405-5.415-15.747l0.043 0.057-2.125-2.432-103.578-103.578c-4.63-4.614-11.017-7.467-18.071-7.467-14.138 0-25.6 11.462-25.6 25.6 0 5.924 2.012 11.379 5.391 15.717l-0.043-0.057 2.125 2.406 85.453 85.478-89.677 89.702c-4.632 4.633-7.497 11.032-7.497 18.101 0 5.938 2.022 11.405 5.415 15.747l-0.043-0.057 2.125 2.406c4.633 4.632 11.032 7.497 18.101 7.497 5.938 0 11.405-2.022 15.747-5.415l-0.057 0.043z" />
<glyph unicode="&#xe92e;" glyph-name="icon-device-encryption" d="M906.573 196.864c14.126-0.016 25.572-11.471 25.572-25.6 0-13.073-9.799-23.857-22.453-25.408l-0.124-0.012-2.995-0.179h-804.173c-14.126 0.016-25.572 11.471-25.572 25.6 0 13.073 9.799 23.857 22.453 25.408l0.124 0.012 2.995 0.179h804.173zM816.077 755.2c33.333-0.131 60.552-26.128 62.634-58.953l0.009-0.183 0.128-4.173v-384.486c0-0.071 0-0.154 0-0.238 0-33.28-25.752-60.546-58.417-62.956l-0.208-0.012-4.147-0.128h-623.36c-33.35 0.133-60.579 26.157-62.634 59.006l-0.009 0.181-0.128 4.147v251.93c0.016 14.126 11.471 25.572 25.6 25.572 13.073 0 23.857-9.799 25.408-22.453l0.012-0.124 0.179-2.995v-251.93c0-6.042 4.147-10.931 9.498-11.93l2.048-0.205h623.36c5.753 0.121 10.484 4.349 11.383 9.865l0.009 0.068 0.205 2.202v384.486c0.001 0.053 0.001 0.115 0.001 0.178 0 5.747-4.046 10.549-9.446 11.712l-0.079 0.014-2.048 0.205h-623.36c-5.754-0.097-10.492-4.324-11.383-9.84l-0.009-0.067-0.179-2.202v-42.47c-0.016-14.126-11.471-25.572-25.6-25.572-13.073 0-23.857 9.799-25.408 22.453l-0.012 0.124-0.179 2.995v42.47c0 0.077-0.001 0.168-0.001 0.26 0 33.27 25.757 60.524 58.419 62.909l0.206 0.012 4.147 0.128h623.36zM510.413 654.669c0.009 0 0.019 0 0.029 0 45.484 0 82.355-36.872 82.355-82.355 0-36.342-23.54-67.186-56.203-78.116l-0.581-0.169v-20.531h9.523c14.126-0.016 25.572-11.471 25.572-25.6 0-13.073-9.799-23.857-22.453-25.408l-0.124-0.012-2.995-0.179h-9.549v-11.853h9.549c14.126-0.016 25.572-11.471 25.572-25.6 0-13.073-9.799-23.857-22.453-25.408l-0.124-0.012-2.995-0.179h-35.123c-13.082 0.002-23.871 9.815-25.409 22.482l-0.012 0.123-0.179 2.97v109.21c-33.176 11.148-56.65 41.962-56.65 78.259 0 45.452 36.809 82.306 82.243 82.381h0.007zM510.413 603.469c-0.004 0-0.008 0-0.013 0-17.207 0-31.155-13.949-31.155-31.155 0-17.202 13.941-31.148 31.142-31.155h0.001c0.004 0 0.008 0 0.013 0 17.207 0 31.155 13.949 31.155 31.155 0 17.202-13.941 31.148-31.142 31.155h-0.001z" />
<glyph unicode="&#xe92f;" glyph-name="icon-device-settings" d="M952 592h-8v152c-0.035 30.914-25.086 55.965-55.997 56h-752.003c-30.914-0.035-55.965-25.086-56-55.997v-248.003h-8c-30.914-0.035-55.965-25.086-56-55.997v-272.003c0.035-30.914 25.086-55.965 55.997-56h144.003c30.914 0.035 55.965 25.086 56 55.997v56.003h139.5l-8-32h-35.5c-8.837 0-16-7.163-16-16v0-48c0-8.837 7.163-16 16-16v0h288c8.837 0 16 7.163 16 16v0 48c0 8.837-7.163 16-16 16v0h-35.5l-8 32h75.5v-56c0.035-30.914 25.086-55.965 55.997-56h208.003c30.914 0.035 55.965 25.086 56 55.997v368.003c-0.035 30.914-25.086 55.965-55.997 56h-0.003zM240 168c-0.011-13.25-10.75-23.989-23.999-24h-144.001c-13.25 0.011-23.989 10.75-24 23.999v272.001c0.011 13.25 10.75 23.989 23.999 24h12.461l12.36-37.060c2.184-6.411 8.152-10.94 15.179-10.94 0 0 0.001 0 0.001 0h64c0 0 0.001 0 0.001 0 7.026 0 12.995 4.529 15.145 10.827l0.033 0.113 12.36 37.060h12.46c13.25-0.011 23.989-10.75 24-23.999v-0.001zM118.2 464h51.6l-5.34-16h-40.92zM640 160v-16h-256v16zM436.5 192l8 32h135l8-32zM688 256h-416v64h416zM688 536v-184h-416v88c-0.035 30.914-25.086 55.965-55.997 56h-104.003v248c0.011 13.25 10.75 23.989 23.999 24h752.001c13.25-0.011 23.989-10.75 24-23.999v-152.001h-168c-30.914-0.035-55.965-25.086-56-55.997v-0.003zM873.8 560l-5.34-16h-40.92l-5.34 16zM976 168c-0.011-13.25-10.75-23.989-23.999-24h-208.001c-13.25 0.011-23.989 10.75-24 23.999v368.001c0.011 13.25 10.75 23.989 23.999 24h44.461l12.36-37.060c2.184-6.411 8.152-10.94 15.179-10.94 0 0 0.001 0 0.001 0h64c0 0 0.001 0 0.001 0 7.026 0 12.995 4.529 15.145 10.827l0.033 0.113 12.36 37.060h44.46c13.25-0.011 23.989-10.75 24-23.999v-0.001zM880 192h-64c-8.837 0-16-7.163-16-16s7.163-16 16-16v0h64c8.837 0 16 7.163 16 16s-7.163 16-16 16v0zM176 192h-64c-8.837 0-16-7.163-16-16s7.163-16 16-16v0h64c8.837 0 16 7.163 16 16s-7.163 16-16 16v0zM528 304h-32c-8.837 0-16-7.163-16-16s7.163-16 16-16v0h32c8.837 0 16 7.163 16 16s-7.163 16-16 16v0z" />
<glyph unicode="&#xe930;" glyph-name="icon-devices" d="M562.678 859.727l3.249-1.772 285.45-163.279c27.237-15.707 45.585-44.159 46.892-76.995l0.006-0.179 0.059-3.436v-326.538c-0.042-33.149-17.441-62.224-43.595-78.631l-0.388-0.227-2.974-1.772-285.45-163.279c-13.454-7.812-29.606-12.423-46.835-12.423-15.926 0-30.933 3.94-44.097 10.899l0.514-0.248-3.249 1.772-200.35 114.609c-4.748 2.836-7.878 7.948-7.878 13.791 0 8.842 7.168 16.010 16.010 16.010 2.236 0 4.365-0.458 6.299-1.287l-0.104 0.040 1.556-0.788 200.359-114.59c8.892-5.159 19.566-8.203 30.951-8.203 10.219 0 19.864 2.453 28.381 6.801l-0.354-0.164 2.905 1.556 252.298 144.335h-666.191c-31.921 0-57.866 25.423-59.274 57.236l-0.069 2.737v22.174c0 8.29 6.302 15.104 14.366 15.921l1.634 0.079h725.415c8.817-0.026 15.953-7.18 15.953-16 0-8.244-6.236-15.032-14.248-15.905l-0.071-0.006-1.634-0.089h-709.415v-6.174c0-14.838 11.244-26.9 25.403-27.914l1.94-0.069h715.254c8.634 9.86 14.141 22.652 14.862 36.708l0.006 0.147 0.069 2.954v326.538c-0.040 21.48-11.203 40.344-28.036 51.143l-2.803 1.682-103.266 59.077h-596.086c-14.395 0-26.27-11.422-27.274-25.984l-0.069-1.999v-338.964c-0.032-8.812-7.183-15.944-16-15.944-8.245 0-15.033 6.236-15.905 14.248l-0.006 0.071-0.089 1.615v338.983c0 32.158 25.068 58.486 56.615 59.914l2.727 0.069h161.29l174.818 99.968c13.45 7.831 29.603 12.453 46.835 12.453 15.933 0 30.943-3.952 44.104-10.928l-0.512 0.247zM608.423 173.824c0.048 0.001 0.104 0.001 0.16 0.001 8.831 0 15.99-7.159 15.99-15.99 0-8.312-6.342-15.143-14.451-15.917l-0.065-0.005-1.634-0.089h-182.055c-8.788 0.070-15.886 7.211-15.886 16.009 0 8.219 6.193 14.991 14.167 15.905l0.074 0.007 1.634 0.079h182.065zM517.396 694.853c10.604-0.003 19.2-8.6 19.2-19.205 0-10.607-8.598-19.205-19.205-19.205-0.002 0-0.003 0-0.005 0v0c-10.604 0.003-19.2 8.6-19.2 19.205 0 10.607 8.598 19.205 19.205 19.205 0.002 0 0.003 0 0.005 0v0zM491.057 831.734l-2.905-1.566-126.257-72.202h314.388l-126.257 72.212c-8.883 5.169-19.551 8.22-30.932 8.22-10.225 0-19.874-2.463-28.388-6.828l0.351 0.163z" />
<glyph unicode="&#xe931;" glyph-name="icon-dial" d="M512 149.333c47.128 0 85.333-38.205 85.333-85.333s-38.205-85.333-85.333-85.333c-47.128 0-85.333 38.205-85.333 85.333s38.205 85.333 85.333 85.333zM512 405.333c47.128 0 85.333-38.205 85.333-85.333s-38.205-85.333-85.333-85.333c-47.128 0-85.333 38.205-85.333 85.333s38.205 85.333 85.333 85.333zM256 405.333c47.128 0 85.333-38.205 85.333-85.333s-38.205-85.333-85.333-85.333c-47.128 0-85.333 38.205-85.333 85.333s38.205 85.333 85.333 85.333zM768 405.333c47.128 0 85.333-38.205 85.333-85.333s-38.205-85.333-85.333-85.333c-47.128 0-85.333 38.205-85.333 85.333s38.205 85.333 85.333 85.333zM512 661.333c47.128 0 85.333-38.205 85.333-85.333s-38.205-85.333-85.333-85.333c-47.128 0-85.333 38.205-85.333 85.333s38.205 85.333 85.333 85.333zM256 661.333c47.128 0 85.333-38.205 85.333-85.333s-38.205-85.333-85.333-85.333c-47.128 0-85.333 38.205-85.333 85.333s38.205 85.333 85.333 85.333zM768 661.333c47.128 0 85.333-38.205 85.333-85.333s-38.205-85.333-85.333-85.333c-47.128 0-85.333 38.205-85.333 85.333s38.205 85.333 85.333 85.333zM512 917.333c47.128 0 85.333-38.205 85.333-85.333s-38.205-85.333-85.333-85.333c-47.128 0-85.333 38.205-85.333 85.333s38.205 85.333 85.333 85.333zM256 917.333c47.128 0 85.333-38.205 85.333-85.333s-38.205-85.333-85.333-85.333c-47.128 0-85.333 38.205-85.333 85.333s38.205 85.333 85.333 85.333zM768 917.333c47.128 0 85.333-38.205 85.333-85.333s-38.205-85.333-85.333-85.333c-47.128 0-85.333 38.205-85.333 85.333s38.205 85.333 85.333 85.333z" />
<glyph unicode="&#xe932;" glyph-name="icon-DLP_Content" d="M469.333 917.333c235.641 0 426.667-191.025 426.667-426.667 0-102.458-36.114-196.481-96.308-270.034l184.673-184.658-60.34-60.34-184.658 184.673c-73.553-60.193-167.576-96.308-270.034-96.308-235.641 0-426.667 191.025-426.667 426.667s191.025 426.667 426.667 426.667zM469.333 832c-188.513 0-341.333-152.82-341.333-341.333s152.82-341.333 341.333-341.333c188.513 0 341.333 152.82 341.333 341.333s-152.82 341.333-341.333 341.333zM384 405.333v-85.333h-128v85.333h128zM469.333 405.333v-85.333h-42.667v85.333h42.667zM682.667 405.333v-85.333h-170.667v85.333h170.667zM298.667 533.333v-85.333h-85.333v85.333h85.333zM512 533.333v-85.333h-170.667v85.333h170.667zM725.333 533.333v-85.333h-170.667v85.333h170.667zM426.667 661.333v-85.333h-170.667v85.333h170.667zM554.667 661.333v-85.333h-85.333v85.333h85.333zM682.667 661.333v-85.333h-85.333v85.333h85.333z" />
<glyph unicode="&#xe933;" glyph-name="icon-dlp-content" d="M505.165 478.234c123.494 0 223.59-100.096 223.59-223.59s-100.096-223.59-223.59-223.59c-123.469 0-223.565 100.096-223.565 223.59 0 123.469 100.096 223.59 223.565 223.59zM505.165 427.034c-95.181 0-172.365-77.184-172.365-172.39s77.184-172.39 172.365-172.39c95.232 0 172.39 77.184 172.39 172.39 0 95.232-77.184 172.39-172.39 172.39zM505.165 372.864c65.28 0 118.221-52.941 118.221-118.221s-52.915-118.221-118.221-118.221c-65.28 0-118.221 52.941-118.221 118.221s52.941 118.221 118.221 118.221zM505.165 321.664c-36.992 0-67.021-30.003-67.021-67.021s30.029-67.021 67.021-67.021c37.018 0 67.021 30.003 67.021 67.021s-30.003 67.021-67.021 67.021zM379.802 857.6c13.133 0 23.962-9.882 25.421-22.605l0.179-2.995v-298.189c0-14.131-11.469-25.6-25.6-25.6-13.133 0-23.936 9.882-25.421 22.605l-0.179 2.995v298.189c0 14.131 11.469 25.6 25.6 25.6zM630.528 857.6c13.133 0 23.962-9.882 25.446-22.605l0.154-2.995v-298.189c0-14.131-11.443-25.6-25.6-25.6-13.107 0-23.936 9.882-25.421 22.605l-0.179 2.995v298.189c0 14.131 11.469 25.6 25.6 25.6zM505.165 857.6c13.133 0 23.962-9.882 25.446-22.605l0.154-2.995v-277.094c0-14.131-11.443-25.6-25.6-25.6-13.107 0-23.936 9.882-25.421 22.605l-0.179 2.995v277.094c0 14.131 11.469 25.6 25.6 25.6z" />
<glyph unicode="&#xe934;" glyph-name="icon-dlp-email" d="M697.6 412.723c35.482 0 64.256-28.774 64.256-64.256v-206.771c0-35.456-28.774-64.23-64.256-64.23h-351.744c-35.482 0-64.256 28.774-64.256 64.256v206.746c0 35.482 28.774 64.256 64.256 64.256zM697.6 361.523h-351.744c-7.219 0-13.056-5.837-13.056-13.056v-206.771c0-7.168 5.837-13.030 13.056-13.030h351.744c7.219 0 13.056 5.837 13.056 13.056v206.746c0 7.219-5.837 13.056-13.056 13.056zM681.754 297.395c7.68-10.547 6.144-25.011-3.123-33.715l-2.483-2.048-116.429-84.838c-21.837-15.923-49.408-16.87-71.936-2.816l-4.147 2.816-115.814 84.429c-11.443 8.32-13.952 24.32-5.632 35.763 7.706 10.547 21.939 13.491 33.075 7.347l2.714-1.741 115.814-84.429c4.48-3.277 9.011-3.738 13.517-1.408l2.253 1.408 116.429 84.838c11.418 8.32 27.443 5.811 35.763-5.632zM521.062 806.4c13.133 0 23.936-9.882 25.421-22.605l0.179-2.995v-277.094c0-14.131-11.469-25.6-25.6-25.6-13.133 0-23.962 9.882-25.421 22.605l-0.179 2.995v277.094c0 14.131 11.469 25.6 25.6 25.6zM395.699 806.4c13.133 0 23.936-9.882 25.421-22.605l0.179-2.995v-277.094c0-14.131-11.469-25.6-25.6-25.6-13.133 0-23.962 9.882-25.446 22.605l-0.154 2.995v277.094c0 14.131 11.443 25.6 25.6 25.6zM646.426 806.4c13.133 0 23.962-9.882 25.421-22.605l0.179-2.995v-277.094c0-14.131-11.469-25.6-25.6-25.6-13.133 0-23.962 9.882-25.421 22.605l-0.179 2.995v277.094c0 14.131 11.469 25.6 25.6 25.6z" />
<glyph unicode="&#xe935;" glyph-name="icon-dlp-file" d="M515.302 445.491c1.075 0 2.15-0.051 3.226-0.205l0.896-0.128c0.691-0.102 1.357-0.256 2.048-0.41 0.512-0.128 1.024-0.256 1.536-0.435l1.459-0.512 1.203-0.512c0.666-0.282 1.331-0.614 1.946-0.947l0.768-0.435c0.64-0.384 1.28-0.794 1.869-1.229 1.101-0.819 2.15-1.69 3.123-2.662l-2.33 2.048 0.256-0.179 2.074-1.869 132.275-132.275c0.768-0.742 1.459-1.536 2.099-2.381l0.358-0.461c1.126-1.536 2.099-3.174 2.867-4.966l0.384-0.896c0.282-0.717 0.538-1.459 0.768-2.202l0.179-0.768c0.256-0.845 0.41-1.69 0.538-2.56 0.179-1.28 0.282-2.56 0.282-3.84l-0.179 3.226 0.026-0.256 0.154-2.995v-209.638c0-14.131-11.443-25.6-25.6-25.6h-250.726c-14.131 0-25.6 11.469-25.6 25.6v341.888c0 14.157 11.469 25.6 25.6 25.6h118.528zM489.677 394.317h-67.277v-290.688h199.526v158.438h-106.624c-13.133 0-23.962 9.856-25.446 22.605l-0.154 2.97-0.026 106.675zM540.851 358.144l0.026-44.877h44.851l-44.877 44.877zM647.526 832c13.133 0 23.962-9.882 25.446-22.605l0.154-2.995v-358.298c0-14.131-11.443-25.6-25.6-25.6-13.133 0-23.936 9.882-25.421 22.605l-0.179 2.995v358.298c0 14.131 11.469 25.6 25.6 25.6zM522.163 832c13.133 0 23.962-9.882 25.421-22.605l0.179-2.995v-277.094c0-14.131-11.469-25.6-25.6-25.6-13.133 0-23.936 9.882-25.421 22.605l-0.179 2.995v277.094c0 14.131 11.469 25.6 25.6 25.6zM396.8 832c13.133 0 23.962-9.882 25.421-22.605l0.179-2.995v-277.094c0-14.131-11.469-25.6-25.6-25.6-13.133 0-23.962 9.882-25.421 22.605l-0.179 2.995v277.094c0 14.131 11.469 25.6 25.6 25.6z" />
<glyph unicode="&#xe936;" glyph-name="icon-dlp" d="M558.285 235.955c61.875 0 112.077-50.176 112.077-112.077s-50.176-112.077-112.077-112.077c-61.926 0-112.128 50.176-112.128 112.077 0 61.926 50.202 112.077 112.128 112.077zM558.285 79.002c-14.157 0-25.6-11.469-25.6-25.6v-2.33l0.154-2.995c1.485-12.723 12.288-22.605 25.421-22.605 14.157 0 25.6 11.469 25.6 25.6v2.304l-0.154 3.021c-1.485 12.723-12.288 22.605-25.446 22.605zM558.285 222.874c-14.157 0-25.6-11.443-25.6-25.6v-73.37l0.154-2.995c1.485-12.723 12.288-22.605 25.421-22.605 14.157 0 25.6 11.443 25.6 25.6v73.37l-0.154 2.995c-1.485 12.723-12.288 22.605-25.446 22.605zM539.827 806.4h0.512c0.589 0 1.178-0.051 1.766-0.102l-2.278 0.102c1.28 0 2.56-0.102 3.814-0.282l1.331-0.256c0.563-0.102 1.101-0.23 1.664-0.384l1.101-0.333c0.666-0.205 1.331-0.461 1.971-0.717l0.691-0.333c0.666-0.307 1.331-0.64 1.946-0.998l0.819-0.461c0.64-0.41 1.28-0.819 1.894-1.28l0.461-0.333c0.998-0.768 1.843-1.536 2.637-2.33l198.938-198.963c1.587-1.536 2.97-3.328 4.122-5.222l0.461-0.819c0.384-0.666 0.717-1.382 1.024-2.099l0.307-0.691c0.307-0.768 0.563-1.536 0.794-2.33l0.205-0.768c0.205-0.768 0.384-1.587 0.512-2.381 0-0.23 0.051-0.435 0.077-0.666l0.051-0.358 0.179-2.995v-460.16c0-14.131-11.469-25.6-25.6-25.6-13.133 0-23.962 9.882-25.421 22.605l-0.179 2.995-0.026 434.586-173.773-0.026c-13.133 0-23.962 9.882-25.421 22.605l-0.179 2.995v89.318c0 14.131 11.469 25.6 25.6 25.6 13.133 0 23.936-9.882 25.421-22.605l0.179-2.995-0.026-63.718 112 0.026-148.198 148.173h-222.003v-608.358h70.554c13.133 0 23.962-9.882 25.421-22.605l0.179-2.995c0-13.133-9.882-23.962-22.605-25.421l-2.995-0.179h-96.154c-13.133 0-23.962 9.882-25.421 22.605l-0.179 2.995v659.558c0 13.133 9.882 23.962 22.605 25.421l2.995 0.179h258.227zM630.298 344.627c14.131 0 25.6-11.443 25.6-25.6 0-13.133-9.882-23.936-22.63-25.421l-2.97-0.179h-239.744c-14.157 0-25.6 11.469-25.6 25.6 0 13.133 9.882 23.962 22.605 25.446l2.995 0.154h239.744zM630.298 433.51c14.131 0 25.6-11.469 25.6-25.6 0-13.133-9.882-23.936-22.63-25.421l-2.97-0.179h-239.744c-14.157 0-25.6 11.469-25.6 25.6 0 13.133 9.882 23.962 22.605 25.421l2.995 0.179h239.744zM471.782 522.394c14.131 0 25.6-11.469 25.6-25.6 0-13.133-9.882-23.962-22.63-25.421l-2.97-0.179h-81.229c-14.157 0-25.6 11.469-25.6 25.6 0 13.133 9.882 23.962 22.605 25.421l2.995 0.179h81.229z" />
<glyph unicode="&#xe937;" glyph-name="icon-domains" d="M981.333 789.333v-682.667h-896v682.667h896zM938.667 576h-810.667v-384h810.667v384zM213.333 448l21.333-64 21.333 64h42.667l21.333-64 21.333 64h42.667l-42.667-128h-42.667l-21.333 64-21.333-64h-42.667l-42.667 128h42.667zM469.333 448l21.333-64 21.333 64h42.667l21.333-64 21.333 64h42.667l-42.667-128h-42.667l-21.333 64-21.333-64h-42.667l-42.667 128h42.667zM725.333 448l21.333-64 21.333 64h42.667l21.333-64 21.333 64h42.667l-42.667-128h-42.667l-21.333 64-21.333-64h-42.667l-42.667 128h42.667zM341.333 704h-42.667v-42.667h42.667v42.667zM938.667 704h-512v-42.667h512v42.667zM170.667 704h-42.667v-42.667h42.667v42.667zM256 704h-42.667v-42.667h42.667v42.667z" />
<glyph unicode="&#xe938;" glyph-name="icon-dots" d="M597.333 704c0 46.933-38.4 85.333-85.333 85.333s-85.333-38.4-85.333-85.333c0-46.933 38.4-85.333 85.333-85.333s85.333 38.4 85.333 85.333zM426.667 448c0-46.933 38.4-85.333 85.333-85.333s85.333 38.4 85.333 85.333c0 46.933-38.4 85.333-85.333 85.333s-85.333-38.4-85.333-85.333zM426.667 192c0-46.933 38.4-85.333 85.333-85.333s85.333 38.4 85.333 85.333c0 46.933-38.4 85.333-85.333 85.333s-85.333-38.4-85.333-85.333z" />
<glyph unicode="&#xe939;" glyph-name="icon-download-link" d="M248.432-64c-65.416-0.002-127.192 25.92-174.854 73.58-49.906 49.908-75.974 115.298-73.406 184.128 2.654 71.086 34.768 139.372 92.872 197.476l104.616 105.042c15.588 15.654 40.914 15.706 56.568 0.116 15.652-15.588 15.706-40.916 0.116-56.568l-104.672-105.102c-84.822-84.822-92.826-195.22-19.522-268.523 73.306-73.31 183.704-65.304 268.463 19.464l143.774 143.774c43.578 43.576 67.61 93.334 69.496 143.89 1.73 46.34-16.038 90.582-50.030 124.574-11.39 11.388-23.992 21.052-37.458 28.722-19.196 10.934-25.894 35.36-14.96 54.554 10.936 19.196 35.362 25.892 54.554 14.96 19.676-11.208 37.99-25.228 54.434-41.67 49.906-49.906 75.974-115.296 73.406-184.126-2.654-71.086-34.768-139.374-92.872-197.476l-143.774-143.774c-58.106-58.104-126.39-90.216-197.476-92.872-3.096-0.11-6.194-0.168-9.276-0.168zM514.567 314.871c10.934 19.196 4.234 43.622-14.96 54.554-13.466 7.67-26.070 17.334-37.458 28.72-73.304 73.306-65.3 183.704 19.464 268.467l143.774 143.772c84.766 84.762 195.162 92.768 268.463 19.464 73.304-73.304 65.3-183.702-19.522-268.523l-104.672-105.102c-15.59-15.652-15.538-40.98 0.116-56.568 15.652-15.59 40.978-15.534 56.568 0.116l104.616 105.044c58.104 58.104 90.216 126.39 92.872 197.474 2.568 68.83-23.5 134.222-73.406 184.128-49.908 49.908-115.332 75.972-184.128 73.408-71.086-2.654-139.372-34.768-197.474-92.872l-143.776-143.772c-58.104-58.104-90.216-126.39-92.872-197.474-2.568-68.83 23.5-134.222 73.406-184.13 16.442-16.44 34.756-30.458 54.434-41.668 6.248-3.558 13.048-5.25 19.76-5.25 13.906 0.002 27.418 7.266 34.794 20.212z" />
<glyph unicode="&#xe93a;" glyph-name="icon-dropdown" d="M512.771 254.458l-320.771 320.771 80.193 80.193 240.578-240.571 240.578 240.571 80.193-80.193-320.771-320.771z" />
<glyph unicode="&#xe93b;" glyph-name="icon-edit" d="M170.667 106.667h142.414l412.252 413.208-142.414 141.459-412.252-413.208v-141.459zM842.299 644.701c14.713 14.463 14.713 36.158 0 50.621l-84.598 83.164c-14.713 14.463-36.782 14.463-51.494 0l-66.207-65.085 139.77-137.401 62.529 68.701z" />
<glyph unicode="&#xe93c;" glyph-name="icon-edr-top-nav" d="M306.816 576c20.992 0 34.517-9.6 34.517-26.24 0-16.683-13.952-26.283-34.517-26.283h-101.12v-50.901h96.469c18.859 0 31.317-8.875 31.317-23.936 0-15.104-12.032-23.979-31.317-23.979h-96.512v-52.139h101.163c20.565 0 34.517-9.6 34.517-26.283 0-16.64-13.525-26.24-34.517-26.24h-139.861c-24.576 0-38.955 12.416-38.955 34.048v187.904c0 21.632 14.379 34.048 38.955 34.048zM524.501 576c72.747 0 115.499-44.885 115.499-126.507 0-81.707-42.88-129.493-115.499-129.493h-109.781c-19.371 0-30.72 12.416-30.72 34.048v187.904c0 21.632 11.349 34.048 30.72 34.048zM516.48 523.52h-71.253v-151.040h71.253c39.893 0 61.269 25.771 61.269 76.843 0 48.085-22.528 74.155-61.269 74.155zM795.179 576c65.493 0 100.821-31.104 100.821-83.115 0-29.696-14.208-56.235-40.96-69.12l32.213-52.608c5.845-9.259 7.125-14.507 7.125-22.016 0-16.939-13.867-29.141-33.323-29.141-16.213 0-23.125 5.419-34.389 24.96l-38.955 67.243h-38.229v-58.88c0-21.12-12.203-33.323-33.323-33.323s-33.493 12.203-33.493 33.365v189.099c0 21.333 12.373 33.536 33.493 33.536zM788.437 527.616h-38.955v-71.595h39.125c24.576 0 39.125 13.824 39.125 35.627 0 21.504-15.445 35.968-39.296 35.968zM170.667 747.477v41.856h682.667v-42.667zM170.667 148.523v-41.856h682.667v42.667z" />
<glyph unicode="&#xe93d;" glyph-name="icon-email-phishing" d="M371.968 832c38.758 0 70.144-31.411 70.144-70.144 0-29.696-18.432-55.066-44.493-65.306l0.026-65.024-0.077-191.642 210.458-0.026c4.122 27.674-1.024 60.621-16.819 98.048l-6.144-30.976c-2.534-12.902-14.336-21.606-27.085-20.582l-2.97 0.41c-12.877 2.56-21.581 14.336-20.557 27.136l0.41 2.944 19.917 100.813c0.128 0.768 0.282 1.434 0.486 2.048l-0.512-2.048c0.589 2.944 1.664 5.658 3.072 8.090l0.717 1.126c0.794 1.203 1.69 2.304 2.662 3.328 0.435 0.512 0.896 0.947 1.357 1.357l0.717 0.614c0.41 0.384 0.845 0.717 1.28 1.024 0.333 0.256 0.64 0.486 0.973 0.691l0.435 0.307 0.845 0.512c0.41 0.256 0.819 0.461 1.254 0.691l-2.099-1.203c1.075 0.691 2.202 1.28 3.328 1.818l1.229 0.512c0.538 0.23 1.075 0.41 1.613 0.589l1.050 0.307c0.486 0.128 0.947 0.256 1.408 0.333l1.357 0.256 1.536 0.179 1.331 0.102h1.229c0.563 0 1.126 0 1.664-0.051l1.28-0.128 1.28-0.179 1.434-0.307 1.382-0.358c0.512-0.154 1.024-0.307 1.51-0.512l0.384-0.128 0.512-0.205c0.614-0.256 1.203-0.512 1.792-0.819l0.41-0.205 93.363-48.538c12.544-6.502 17.408-21.965 10.906-34.509-6.067-11.648-19.814-16.691-31.795-12.134l-2.739 1.229-20.966 10.88c16.307-40.704 22.528-78.592 19.123-112.461h72.576c40.192 0 72.73-32.538 72.73-72.704v-252.211c0-40.192-32.563-72.73-72.73-72.73h-429.030c-40.166 0-72.73 32.538-72.73 72.704v252.237c0 40.166 32.563 72.704 72.73 72.704l43.264 0.026 0.051 44.262-0.077 212.378c-26.061 10.24-44.544 35.635-44.544 65.331 0 38.733 31.437 70.144 70.144 70.144zM585.293 388.634l-282.189 0.051c-11.878 0-21.53-9.651-21.53-21.53v-252.211c0-11.904 9.651-21.53 21.53-21.53h429.056c11.904 0 21.53 9.626 21.53 21.504v252.237c0 11.878-9.626 21.504-21.53 21.504h-86.528c-3.712-7.936-8.115-15.514-13.21-22.733-39.373-55.68-114.56-77.978-180.147-56.678-13.44 4.352-20.813 18.816-16.435 32.256 4.352 13.44 18.816 20.813 32.256 16.435 41.984-13.645 89.856-1.101 117.171 30.72zM336.717 314.266l2.739-1.715 165.222-120.474c7.424-5.427 15.488-6.016 23.040-1.792l2.816 1.792 158.413 115.43c11.418 8.32 27.443 5.811 35.763-5.632 7.68-10.522 6.144-24.986-3.149-33.69l-2.458-2.048-158.387-115.43c-24.832-18.15-56.192-19.149-81.766-3.021l-4.454 3.021-165.222 120.474c-11.418 8.32-13.926 24.32-5.581 35.763 7.68 10.547 21.914 13.491 33.024 7.322zM372.019 780.8c-10.47 0-18.944-8.474-18.944-18.944s8.474-18.944 18.944-18.944c10.445 0 18.944 8.474 18.944 18.944s-8.525 18.944-18.995 18.944z" />
<glyph unicode="&#xe93e;" glyph-name="icon-Email" d="M896.924 789.333c17.109 0 41.742-18.357 41.742-43.77v-596.805c0-18.485-17.597-42.093-41.742-42.093h-767.094c-21.861 0-44.497 21.664-44.497 42.093v596.805c0 29.973 19.435 45.453 42.869 43.77s498.37 0 746.741 0c4.885 0 12.212 0 21.981 0zM853.333 704h-682.667v-512h682.667v512zM768.927 618.964v-108.713l-256.927-165.343-256.346 171.165v102.891l256.346-170.964 256.927 170.964z" />
</font>
</defs>
</svg>
